梦空间4K60帧 【国英5.1双语/简繁英(原盘PGS)字幕/多版本】

《奠基》是一部复杂精致并绝对精彩好看的电影,他让你在片尾字幕出现时完全反应不过来之前的两个半小时发生了什么,就像一场梦境一样让你匪夷所思却又流连忘返。

盗梦空间nception .H265.10bit.DTS-HD.4KSG[国英5.1双语/简繁英(原盘PGS)字幕/多版本]

导演: 克里斯托弗·诺兰
编剧: 克里斯托弗·诺兰
主演: 莱昂纳多·迪卡普里奥 / 约瑟夫·高登-莱维特 / 艾伦·佩吉 / 汤姆·哈迪 / 渡边谦 / 更多...
类型: 剧情 / 科幻 / 悬疑 / 冒险
制片国家/地区: 美国 / 英国
语言: 英语 / 日语 / 法语
上映日期: 2010-09-01(中国大陆) / 2020-08-28(中国大陆重映) / 2010-07-16(美国)
片长: 148分钟
又名: 潜行凶间(港) / 全面启动(台) / 奠基 / 心灵犯案 / 记忆迷阵 / 记忆魔方
IMDb链接: tt1375666
官方小站: 盗梦空间-Inception

盗梦空间的剧情简介 · · · · · ·
道姆·柯布(莱昂纳多·迪卡普里奥 Leonardo DiCaprio 饰)与同事阿瑟(约瑟夫·戈登-莱维特 Joseph Gordon-Levitt 饰)和纳什(卢卡斯·哈斯 Lukas Haas 饰)在一次针对日本能源大亨齐藤(渡边谦 饰)的盗梦行动中失败,反被齐藤利用。齐藤威逼利诱因遭通缉而流亡海外的柯布帮他拆分他竞争对手的公司,采取极端措施在其唯一继承人罗伯特·费希尔(希里安·墨菲 Cillian Murphy 饰)的深层潜意识中种下放弃家族公司、自立门户的想法。为了重返美国,柯布偷偷求助于岳父迈尔斯(迈克尔·凯恩 Michael Caine 饰),吸收了年轻的梦境设计师艾里阿德妮(艾伦·佩吉 Ellen Page 饰)、梦境演员艾姆斯(汤姆·哈迪 Tom Hardy 饰)和药剂师约瑟夫(迪利普·劳 Dileep Rao 饰)加入行动。在一层层... (展开全部)

文件信息:
Unique ID : 334737866980168841028391229328885792395 (0xFBD42B0C1FA5F542F04C9DDF6883BE8B)
Complete name : G:\BaiduNetdiskDownload\发烧版【2010】4K.60帧.盗梦空间.H265.10bit.DTS-HD.4KSG.国英5.1双语.简繁英(原盘PGS)字幕.mkv
Format : Matroska
Format version : Version 4
File size : 19.9 GiB
Duration : 2 h 28 min
Overall bit rate mode : Variable
Overall bit rate : 19.2 Mb/s
Movie name : 发烧版【2010】4K.60帧.盗梦空间.H265.10bit.DTS-HD.4KSG.国英5.1双语.简繁英(原盘PGS)字幕
Encoded date : UTC 2020-09-22 16:07:58
Writing application : mkvmerge v50.0.0 ('Awakenings') 64-bit
Writing library : libebml v1.4.0 + libmatroska v1.6.2
Cover : Yes
Attachments : cover.jpg / 微软雅黑.ttf / 微软雅黑.ttf / cover.jpg / 微软雅黑.ttf / small_cover.jpg / small_cover_land.jpg / cover.jpg / cover_land.jpg

Video
ID : 1
Format : HEVC
Format/Info : High Efficiency Video Coding
Format profile : Main 10@L5.1@Main
Codec ID : V_MPEGH/ISO/HEVC
Duration : 2 h 28 min
Bit rate : 14.7 Mb/s
Width : 3 840 pixels
Height : 2 160 pixels
Display aspect ratio : 16:9
Frame rate mode : Constant
Frame rate : 60.000 FPS
Color space : YUV
Chroma subsampling : 4:2:0
Bit depth : 10 bits
Bits/(Pixel*Frame) : 0.029
Stream size : 15.2 GiB (76%)
Title : 4K时光 4kSG.Com
Language : English
Default : Yes
Forced : No

Audio #1
ID : 2
Format : AC-3
Format/Info : Audio Coding 3
Commercial name : Dolby Digital
Codec ID : A_AC3
Duration : 2 h 28 min
Bit rate mode : Constant
Bit rate : 640 kb/s
Channel(s) : 6 channels
Channel layout : L R C LFE Ls Rs
Sampling rate : 48.0 kHz
Frame rate : 31.250 FPS (1536 SPF)
Compression mode : Lossy
Stream size : 678 MiB (3%)
Title : 国语 Dolby 5.1
Language : Chinese
Service kind : Complete Main
Default : Yes
Forced : No

Audio #2
ID : 3
Format : DTS XLL
Format/Info : Digital Theater Systems
Commercial name : DTS-HD Master Audio
Codec ID : A_DTS
Duration : 2 h 28 min
Bit rate mode : Variable
Bit rate : 3 821 kb/s
Channel(s) : 6 channels
Channel layout : C L R Ls Rs LFE
Sampling rate : 48.0 kHz
Frame rate : 93.750 FPS (512 SPF)
Bit depth : 24 bits
Compression mode : Lossless
Stream size : 3.95 GiB (20%)
Title : 英文原声 DTS-HD 5.1
Language : English
Default : No
Forced : No

Text #1
ID : 4
Format : PGS
Muxing mode : zlib
Codec ID : S_HDMV/PGS
Codec ID/Info : Picture based subtitle format used on BDs/HD-DVDs
Duration : 2 h 26 min
Bit rate : 27.5 kb/s
Count of elements : 3332
Stream size : 28.8 MiB (0%)
Title : 简体(原盘PGS)字幕
Language : Chinese
Default : Yes
Forced : No

Text #2
ID : 5
Format : PGS
Muxing mode : zlib
Codec ID : S_HDMV/PGS
Codec ID/Info : Picture based subtitle format used on BDs/HD-DVDs
Duration : 2 h 26 min
Bit rate : 25.2 kb/s
Count of elements : 3593
Stream size : 26.3 MiB (0%)
Title : 繁体(原盘PGS)字幕
Language : Chinese
Default : No
Forced : No

Text #3
ID : 6
Format : PGS
Muxing mode : zlib
Codec ID : S_HDMV/PGS
Codec ID/Info : Picture based subtitle format used on BDs/HD-DVDs
Duration : 2 h 26 min
Bit rate : 22.2 kb/s
Count of elements : 3245
Stream size : 23.3 MiB (0%)
Title : 繁体(原盘PGS)字幕
Language : Chinese
Default : No
Forced : No

Text #4
ID : 7
Format : PGS
Muxing mode : zlib
Codec ID : S_HDMV/PGS
Codec ID/Info : Picture based subtitle format used on BDs/HD-DVDs
Duration : 2 h 27 min
Bit rate : 32.7 kb/s
Count of elements : 3476
Stream size : 34.4 MiB (0%)
Title : 英文(原盘PGS)字幕
Language : English
Default : No
Forced : No

Menu
00:00:00.000 : en:Chapter 1
00:11:41.742 : en:Chapter 2
00:21:37.337 : en:Chapter 3
00:31:20.336 : en:Chapter 4
00:41:22.229 : en:Chapter 5
00:51:13.737 : en:Chapter 6
01:01:21.552 : en:Chapter 7
01:10:29.683 : en:Chapter 8
01:22:15.597 : en:Chapter 9
01:31:52.590 : en:Chapter 10
01:40:38.532 : en:Chapter 11
01:51:22.175 : en:Chapter 12
02:00:54.413 : en:Chapter 13
02:10:09.051 : en:Chapter 14
02:20:55.447 : en:Chapter 15

梦空间4K60帧百度网盘下载

链接:https://pan.baidu.com/s/1PBWDIbJpVecntcgeOWl-DQ
提取码:

此处内容需要购买后查看,终身会员可免费查看

支付5元查看


复制这段内容后打开百度网盘手机App,操作更方便哦

分享到:
赞(0)

评论抢沙发

评论前必须登录!