4K60帧·正义联盟1国英5.1双语17.5GB

个人觉得是超级英雄片年度最佳,和妇联1水平持平,略好于妇联2。虽然剪辑有小瑕疵,但是瑕不掩瑜,故事简单有力,对观众的友好度比BVS好太多。比雷神3有看点多了,别听媒体吹,其实比女侠也更好看,毕竟团战。亮点:闪电侠,海王。还有绿灯侠彩蛋,片尾两个彩蛋。你们爱的超人实力越来越强了。

 正义联盟1 Justice League .H265.10bit.DTS-HD.国语配音/原声,外挂字幕

导演: 扎克·施奈德
编剧: 扎克·施奈德 / 克里斯·特里奥 / 乔斯·韦登 / 比尔·芬格 / 鲍勃·凯恩 / 乔·舒斯特 / 杰里·西格尔 / 威廉·马斯顿
主演: 本·阿弗莱克 / 亨利·卡维尔 / 盖尔·加朵 / 埃兹拉·米勒 / 杰森·莫玛 / 更多...
类型: 动作 / 科幻 / 奇幻 / 冒险
官方网站: www.justiceleaguethemovie.com
制片国家/地区: 美国
语言: 英语 / 普通话
上映日期: 2017-11-17(美国/中国大陆)
片长: 120分钟
又名: The Justice League Part One / Justice League Mortal / Justice League of America
IMDb链接: tt0974015

正义联盟的剧情简介 · · · · · ·
超人离去,举世陷入哀悼之中。可是世界并未就此和平,恶势力蠢蠢欲动,犯罪气焰重新抬头。更为糟糕的是,来自远古的可怕威胁正渐渐逼近。在很久很久以前,亚特兰蒂斯人、亚马逊人和神族联合对抗邪恶的荒原狼。历经艰苦的斗争,荒原狼最终战败,被迫流放,而他留在地球上的三个盒子则分别由亚特兰蒂斯人、亚马逊人和普通人类看管。如今荒原狼卷土重来,地球被邪恶的阴影笼罩。值此危急关头,神奇女侠戴安娜(盖尔·加朵 Gal Gadot 饰)、蝙蝠侠布鲁斯·韦恩(本·阿弗莱克 Ben Affleck 饰)、海王(杰森·莫玛 Jason Momoa 饰)、闪电侠(埃兹拉·米勒 Ezra Miller 饰)、钢骨维克多·斯通(雷·费舍尔 Ray Fisher 饰)等五名正义战士走到一起。
他们结成正义联盟,与荒原狼大军展开殊死之战……

文件信息:

General
Unique ID : 112447735890483009959621142611579866490 (0x5498A56B980ACFA2CFF75DF8044F8D7A)
Format : Matroska
Format version : Version 4
File size : 17.2 GiB
Duration : 2 h 0 min
Overall bit rate : 20.6 Mb/s
Movie name : 发烧版【2017】4K.60帧.正义联盟.H265.10bit.DTS.Dolby.国英5.1双语.中英字幕
Encoded date : UTC 2020-09-03 18:19:48
Writing application : mkvmerge v48.0.0 ('Fortress Around Your Heart') 64-bit
Writing library : libebml v1.4.0 + libmatroska v1.6.0
Cover : Yes
Attachments : cover.jpg / 微软雅黑.ttf

Video
ID : 1
Format : HEVC
Format/Info : High Efficiency Video Coding
Format profile : Main 10@L5.1@Main
Codec ID : V_MPEGH/ISO/HEVC
Duration : 2 h 0 min
Bit rate : 18.6 Mb/s
Width : 3 840 pixels
Height : 2 160 pixels
Display aspect ratio : 16:9
Frame rate mode : Constant
Frame rate : 60.000 FPS
Color space : YUV
Chroma subsampling : 4:2:0
Bit depth : 10 bits
Bits/(Pixel*Frame) : 0.037
Stream size : 15.6 GiB (90%)
Language : English
Default : Yes
Forced : No

Audio #1
ID : 2
Format : AC-3
Format/Info : Audio Coding 3
Commercial name : Dolby Digital
Codec ID : A_AC3
Duration : 2 h 0 min
Bit rate mode : Constant
Bit rate : 448 kb/s
Channel(s) : 6 channels
Channel layout : L R C LFE Ls Rs
Sampling rate : 48.0 kHz
Frame rate : 31.250 FPS (1536 SPF)
Compression mode : Lossy
Stream size : 385 MiB (2%)
Title : 国语 Dolby 5.1
Language : Chinese
Service kind : Complete Main
Default : Yes
Forced : No

Audio #2
ID : 3
Format : DTS
Format/Info : Digital Theater Systems
Codec ID : A_DTS
Duration : 2 h 0 min
Bit rate mode : Constant
Bit rate : 1 509 kb/s
Channel(s) : 6 channels
Channel layout : C L R Ls Rs LFE
Sampling rate : 48.0 kHz
Frame rate : 93.750 FPS (512 SPF)
Bit depth : 24 bits
Compression mode : Lossy
Stream size : 1.27 GiB (7%)
Title : 英语 DTS 5.1
Language : English
Default : No
Forced : No

Text
ID : 4
Format : ASS
Codec ID : S_TEXT/ASS
Codec ID/Info : Advanced Sub Station Alpha
Duration : 1 h 58 min
Bit rate : 184 b/s
Count of elements : 1305
Compression mode : Lossless
Stream size : 160 KiB (0%)
Title : 中英字幕
Language : Chinese
Default : Yes
Forced : No

 4K60帧正义联盟1 Justice League .H265.10bit.DTS-HD.国语配音/原声,外挂字幕百度网盘下载

链接:https://pan.baidu.com/s/1SvOqMbzxF9eTsKl4q9_25A
提取码:

此处内容需要购买后查看,终身会员可免费查看

支付10元查看

分享到:
赞(0)

评论抢沙发

评论前必须登录!