60帧·钢铁侠 [国英双语5.1 2K百度网盘下载18.9GB]

他的初衷是制造武器保护人们,却发现这些武器杀死的人更多,所以他开始明白自己的使命。 那句“那就珍惜它,别浪费生命”让他思考生命的意义,他终于发现自己除了制造武器还能贡献更多。 身为军火商却不能保护自己、眼睁睁看着人们死于自己制造的军火之下……于是,他成为了钢铁侠。 和飞机肩并肩、向世人公布自己的身份,他自大、狂妄、有很多人格缺陷,不适合当超级英雄。 但他就是钢铁侠,钢铁侠就是他。 寇森初次登场,救命恩人伊森给人留下了深刻印象,幸亏小辣椒没有扔掉方舟反应炉,机缘巧合之下救了托尼一命。 正是孤注一掷拍摄《钢铁侠1》才有了后来MCU的空前盛世,是MCU第一部电影,也是MCU最重要的一部电影。 PS:斯坦·李出现在第68分钟;片尾彩蛋引出《复仇者联盟》。

导演: 乔恩·费儒
编剧: 阿特·马库姆 / 马特·霍洛维 / 马克·弗格斯 / 霍克·奥斯比
主演: 小罗伯特·唐尼 / 泰伦斯·霍华德 / 格温妮斯·帕特洛 / 杰夫·布里吉斯 / 莱丝莉·比伯 / 更多...
类型: 动作 / 科幻 / 惊悚 / 冒险
制片国家/地区: 美国
语言: 英语 / 波斯语 / 乌尔都语 / 阿拉伯语
上映日期: 2008-04-30(中国大陆) / 2008-04-14(悉尼首映) / 2008-05-02(美国)
片长: 126 分钟
又名: 铁甲奇侠(港) / 钢铁人(台) / 铁人

剧情简介 · · · · · ·  斯塔克军火公司是美军在全球范围内第一大军火供应商,其新任掌门人托尼•斯塔克(小罗伯特·唐尼 Robert Downey Jr. 饰)风流倜傥,天资聪颖。他与公司元老俄巴迪亚•斯坦(杰夫·布里吉斯 Jeff Bridges 饰)合作无间,共同将斯塔克公司的业务推向顶峰。现 实生活中的托尼热衷收集名贵跑车,搞点儿发明创造,当然露水姻缘更不可少。所幸他身边有维吉尼亚•波茨(格温妮斯·帕特洛 Gwyneth Paltrow 饰)这样的好助手细心打理一切,才让他能自由自在过着贵公子的生活。
在前往中东为军方展示新型武器的途中,托尼一众遭到恐怖分子袭击。他被弹片击中险些丧命,在英森博士的帮助下,托尼体内移植了一颗核动力的人工心脏。恐怖分子要求托尼制造强大的杀伤性武器,他和英森虚与委蛇,暗中制造了一套由聚变能源驱动的钢铁盔甲。穿上盔甲托尼大闹恐怖分子的基地,回到美国后又对其进行了改进。却不知,接下来有更为黑暗的阴谋等着他……

文件信息:Unique ID : 74269840439852225586266965582286491554 (0x37DFD9D8F5C4971F4FDBA1FFDCF90FA2)
Format : Matroska
Format version : Version 4
File size : 19.0 GiB
Duration : 2 h 6 min
Overall bit rate mode : Variable
Overall bit rate : 21.5 Mb/s
Movie name : 【2008】钢铁侠 .2K.60帧.H265.4KSG.国英5.1双语.中英字幕
Encoded date : UTC 2020-04-22 05:08:18
Writing application : mkvmerge v45.0.0 ('Heaven in Pennies') 64-bit
Writing library : libebml v1.3.10 + libmatroska v1.5.2
Cover : Yes
Attachments : 微软雅黑.ttf / cover.jpg

Video
ID : 1
Format : HEVC
Format/Info : High Efficiency Video Coding
Format profile : Main@L5@Main
Codec ID : V_MPEGH/ISO/HEVC
Duration : 2 h 6 min
Bit rate : 17.1 Mb/s
Width : 2 560 pixels
Height : 1 440 pixels
Display aspect ratio : 16:9
Frame rate mode : Constant
Frame rate : 59.940 (59940/1000) FPS
Original frame rate : 60.000 FPS
Color space : YUV
Chroma subsampling : 4:2:0
Bit depth : 8 bits
Bits/(Pixel*Frame) : 0.077
Stream size : 15.1 GiB (80%)
Title : 4K时光 4kSG.COM
Language : Chinese
Default : Yes
Forced : No

Audio #1
ID : 2
Format : AC-3
Format/Info : Audio Coding 3
Commercial name : Dolby Digital
Codec ID : A_AC3
Duration : 2 h 6 min
Bit rate mode : Constant
Bit rate : 320 kb/s
Channel(s) : 6 channels
Channel layout : L R C LFE Ls Rs
Sampling rate : 44.1 kHz
Frame rate : 28.711 FPS (1536 SPF)
Compression mode : Lossy
Stream size : 289 MiB (1%)
Title : (01)国语 5.1
Language : Chinese
Service kind : Complete Main
Default : Yes
Forced : No

Audio #2
ID : 3
Format : DTS XLL
Format/Info : Digital Theater Systems
Commercial name : DTS-HD Master Audio
Codec ID : A_DTS
Duration : 2 h 6 min
Bit rate mode : Variable
Bit rate : 4 046 kb/s
Channel(s) : 6 channels
Channel layout : C L R Ls Rs LFE
Sampling rate : 48.0 kHz
Frame rate : 93.750 FPS (512 SPF)
Bit depth : 24 bits
Compression mode : Lossless
Stream size : 3.57 GiB (19%)
Title : (02)英语 DTS-HD 5.1
Language : English
Default : No
Forced : No

Text
ID : 4
Format : ASS
Codec ID : S_TEXT/ASS
Codec ID/Info : Advanced Sub Station Alpha
Duration : 2 h 4 min
Bit rate : 182 b/s
Count of elements : 1543
Compression mode : Lossless
Stream size : 167 KiB (0%)
Title : 国英字幕
Language : Chinese
Default : Yes
Forced : No

Menu
00:00:00.000 : en:00:00:00.000
00:04:40.655 : en:00:04:40.655
00:10:52.944 : en:00:10:52.944
00:17:07.610 : en:00:17:07.610
00:26:23.249 : en:00:26:23.249
00:33:08.945 : en:00:33:08.945
00:42:20.538 : en:00:42:20.538
00:49:00.730 : en:00:49:00.730
00:52:58.758 : en:00:52:58.758
01:05:15.328 : en:01:05:15.328
01:15:24.144 : en:01:15:24.144
01:25:00.762 : en:01:25:00.762
01:30:49.777 : en:01:30:49.777
01:36:06.093 : en:01:36:06.093
01:42:39.736 : en:01:42:39.736
01:53:51.742 : en:01:53:51.742
01:57:38.051 : en:01:57:38.051

2K.60帧. 钢铁侠 (高码版)2008.H265.DTS-HD.4KSG[国英5.1双语/特效双字幕/18.9G]百度网盘下载:

链接: https://pan.baidu.com/s/1gBUNRC8bDIxY2eKb4Y1t_A

提取码:

此处内容需要购买后查看,终身会员可免费查看

支付10元查看

分享到:
赞(0)

评论抢沙发

评论前必须登录!