60帧·美国队长2 [国英双语5.1 4K/1080P百度网盘下载18.75GB]

美国队长是我看了这么多部系列片里,第一部自己把自己的上一部秒的渣子都不剩的电影。另外回下:“这年头难道特效好,剧情紧凑有基情,让人看得爽就能给五星?某些脑残粉是不是以为自己在看A片?!”虽然装专业和高冷很成功但是只有屌丝才会把A片挂在耳边,所以你也不算装专业,只是装逼出了新高度

导演: 安东尼·罗素 / 乔·罗素
编剧: 克里斯托弗·马库斯 / 斯蒂芬·麦克菲利
主演: 克里斯·埃文斯 / 斯嘉丽·约翰逊 / 塞巴斯蒂安·斯坦 / 安东尼·麦凯 / 海莉·阿特维尔 / 更多...
类型: 动作 / 科幻 / 冒险
官方网站: marvel.com/captainamerica
制片国家/地区: 美国
语言: 英语 / 国语
上映日期: 2014-04-04(美国/中国大陆) / 2014-03-13(加州首映)
片长: 136分钟
又名: 美队2 / 美国队长2:冬日战士 / 美国队长2:酷寒战士(台) / 美国队长2:寒冬战士 / 美国队长:冬兵 / Captain America 2
IMDb链接: tt1843866

剧情简介 · · · · · ·

渐渐习惯了现代生活的美国队长史蒂夫·罗杰斯(克里斯·埃文斯 Chris Evans 饰),在一次行动后隐隐嗅到神盾局内部所弥漫出来的凶险气味。而当得知神盾局正秘密进行的“洞察计划”后,他更为此感到愤怒。某天,神盾局指挥官尼克-法瑞(塞缪尔·杰克逊 Samuel L. Jackson 饰)遭到一群武装分子袭击,他拼尽全力将一支U盘交到美国队长手中,这里面藏着该局二战以来最重要且最可怕的秘密。在此之后,美国队长因涉嫌杀害尼克而遭到前局长亚历山大·皮尔斯(罗伯特·雷德福/Robert Redford 饰)的通缉和追杀,逃亡中他得到黑寡妇(斯嘉丽·约翰逊 Scarlett Johansson 饰)和退伍老兵“猎鹰”(安东尼·麦凯 Anthony Mackie 饰)的帮助。
他们必须争分夺秒解开神盾局的秘密,阻止“洞察计划”的施行……

文件信息:

Unique ID : 164297248115648063217125808340493519440 (0x7B9A7FBDFB36896D2606ECA35209CA50)
Format : Matroska
Format version : Version 4
File size : 18.7 GiB
Duration : 2 h 15 min
Overall bit rate : 19.7 Mb/s
Movie name : 4K.120帧.美国队长2冬日战士.H265.10bit.DTS.国英5.1双语.中英特效字幕
Encoded date : UTC 2020-08-14 15:55:29
Writing application : mkvmerge v48.0.0 ('Fortress Around Your Heart') 64-bit
Writing library : libebml v1.4.0 + libmatroska v1.6.0
Cover : Yes
Attachments : cover.jpg / 微软雅黑.ttf

Video
ID : 1
Format : HEVC
Format/Info : High Efficiency Video Coding
Format profile : Main 10@L5.2@Main
Codec ID : V_MPEGH/ISO/HEVC
Duration : 2 h 15 min
Bit rate : 17.5 Mb/s
Width : 3 840 pixels
Height : 2 160 pixels
Display aspect ratio : 16:9
Frame rate mode : Variable
Frame rate : 119.851 FPS
Original frame rate : 119.880 (119880/1000) FPS
Color space : YUV
Chroma subsampling : 4:2:0
Bit depth : 10 bits
Bits/(Pixel*Frame) : 0.018
Stream size : 16.6 GiB (89%)
Title : 4K时光 4kSG.Cn
Language : English
Default : Yes
Forced : No

Audio #1
ID : 2
Format : AC-3
Format/Info : Audio Coding 3
Commercial name : Dolby Digital
Codec ID : A_AC3
Duration : 2 h 15 min
Bit rate mode : Constant
Bit rate : 640 kb/s
Channel(s) : 6 channels
Channel layout : L R C LFE Ls Rs
Sampling rate : 48.0 kHz
Frame rate : 31.250 FPS (1536 SPF)
Compression mode : Lossy
Stream size : 622 MiB (3%)
Title : 中文 Dolby 5.1
Language : Chinese
Service kind : Complete Main
Default : Yes
Forced : No

Audio #2
ID : 3
Format : DTS
Format/Info : Digital Theater Systems
Codec ID : A_DTS
Duration : 2 h 15 min
Bit rate mode : Constant
Bit rate : 1 509 kb/s
Channel(s) : 6 channels
Channel layout : C L R Ls Rs LFE
Sampling rate : 48.0 kHz
Frame rate : 93.750 FPS (512 SPF)
Bit depth : 24 bits
Compression mode : Lossy
Stream size : 1.43 GiB (8%)
Title : 英文 DTS 5.1
Language : English
Default : No
Forced : No

Text
ID : 4
Format : SSA
Codec ID : S_TEXT/SSA
Codec ID/Info : Sub Station Alpha
Duration : 2 h 15 min
Bit rate : 231 b/s
Count of elements : 1609
Compression mode : Lossless
Stream size : 229 KiB (0%)
Title : 中英特效字幕
Language : Chinese
Default : Yes
Forced : No

4K.120帧.美国队长2冬日战士.H265.10bit.DTS.4KSG.国英5.1双语.中英特效字幕[18.7G]百度网盘下载

链接: https://pan.baidu.com/s/1J1mXFwWexvOgpAFLP6OGJA

提取码:

此处内容需要购买后查看,终身会员可免费查看

支付10元查看

分享到:
赞(0)

评论抢沙发

评论前必须登录!