60帧·美国队长1 [国英双语5.1 4K/1080P百度网盘下载17.85GB]

小学四年级,在红白机上玩着美国队长的游戏,副将是鹰眼侠,但还是喜欢用美国队长,因为他的盾牌在飞回来时也有攻击效力。影片端正得和我儿时的想象完全一致,最大败笔并不是场面少,而是Boss孤独得没有存在感。看到片中小朋友拿着队长痛揍希特勒那期封面漫画奔跑,我就快哭了。

导演: 乔·庄斯顿
编剧: 克里斯托弗·马库斯 / 斯蒂芬·麦克菲利 / 乔·西蒙 / 杰克·科比
主演: 克里斯·埃文斯 / 海莉·阿特维尔 / 塞巴斯蒂安·斯坦 / 汤米·李·琼斯 / 雨果·维文 / 更多...
类型: 动作 / 科幻 / 冒险
制片国家/地区: 美国
语言: 英语 / 国语
上映日期: 2011-09-09(中国大陆) / 2011-07-19(加州首映) / 2011-07-22(美国)
片长: 124分钟(美国)
又名: 复仇者先锋
IMDb链接: tt0458339

剧情简介 · · · · · ·

上世纪40年代,纳粹及其邪恶轴心的战火烧遍世界各个角落。居住在布鲁克林的小个子史蒂夫·罗格斯(克里斯·埃文斯 Chris Evans 饰)心系国家,一心上阵杀敌,可是糟糕的体格让他始终被征兵办拒之门外。偶然的机会,在德籍科学家厄斯金博士(Stanley Tucci 饰)的帮助下,这个小个子男孩得以走入兵营,并接受了博士的试验,化身成为高大健壮、膂力过人的超级战士。与此同时,德国纳粹红骷髅部队的首领约翰·施密特(雨果·维文 Hugo Weaving 饰)依靠超自然的力量建立起一支超级战队,企图称霸全世界。
为了营救好友,史蒂夫以美国队长的形象闯入施密特的军营,正邪两大超级战士的战斗就此展开……

文件信息:

Unique ID : 319142447889983784798750651188312688571 (0xF0189985641D806EB551E3BD885247BB)
Complete name : G:\BaiduNetdiskDownload\【0294】美队1\4K60帧h265美队1-17.8GB.mkv
Format : Matroska
Format version : Version 4
File size : 17.8 GiB
Duration : 2 h 4 min
Overall bit rate : 20.6 Mb/s
Movie name : 4K.120帧.美国队长1.H265.10bit.DTS.国英5.1双语.中英字幕
Encoded date : UTC 2020-08-07 15:44:12
Writing application : mkvmerge v48.0.0 ('Fortress Around Your Heart') 64-bit
Writing library : libebml v1.4.0 + libmatroska v1.6.0
Cover : Yes
Attachments : cover.jpg / 微软雅黑.ttf / cover.jpg / 微软雅黑.ttf

Video
ID : 1
Format : HEVC
Format/Info : High Efficiency Video Coding
Format profile : Main 10@L5.2@Main
Codec ID : V_MPEGH/ISO/HEVC
Duration : 2 h 4 min
Bit rate : 17.5 Mb/s
Width : 3 840 pixels
Height : 2 160 pixels
Display aspect ratio : 16:9
Frame rate mode : Variable
Frame rate : 119.819 FPS
Original frame rate : 119.880 (119880/1000) FPS
Color space : YUV
Chroma subsampling : 4:2:0
Bit depth : 10 bits
Bits/(Pixel*Frame) : 0.018
Stream size : 15.2 GiB (85%)
Title : 4K时光 4kSG.Cn
Language : English
Default : Yes
Forced : No

Audio #1
ID : 2
Format : DTS
Format/Info : Digital Theater Systems
Codec ID : A_DTS
Duration : 2 h 4 min
Bit rate mode : Constant
Bit rate : 1 509 kb/s
Channel(s) : 6 channels
Channel layout : C L R Ls Rs LFE
Sampling rate : 48.0 kHz
Frame rate : 93.750 FPS (512 SPF)
Bit depth : 24 bits
Compression mode : Lossy
Stream size : 1.31 GiB (7%)
Title : 国语 DTS 5.1
Language : Chinese
Default : Yes
Forced : No

Audio #2
ID : 3
Format : DTS
Format/Info : Digital Theater Systems
Codec ID : A_DTS
Duration : 2 h 4 min
Bit rate mode : Constant
Bit rate : 1 509 kb/s
Channel(s) : 6 channels
Channel layout : C L R Ls Rs LFE
Sampling rate : 48.0 kHz
Frame rate : 93.750 FPS (512 SPF)
Bit depth : 24 bits
Compression mode : Lossy
Stream size : 1.31 GiB (7%)
Title : 英语 DTS 5.1
Language : English
Default : No
Forced : No

Text
ID : 4
Format : ASS
Codec ID : S_TEXT/ASS
Codec ID/Info : Advanced Sub Station Alpha
Duration : 2 h 2 min
Bit rate : 156 b/s
Count of elements : 2449
Compression mode : Lossless
Stream size : 141 KiB (0%)
Title : 中英字幕
Language : Chinese
Default : Yes
Forced : No

4K.120帧.美国队长1.H265.10bit.DTS.4KSG.国英5.1双语.中英字幕[17.85G]百度网盘下载:

链接: https://pan.baidu.com/s/1BW4sX9pbqNEz1ehwx5AjHQ

提取码:

此处内容需要购买后查看,终身会员可免费查看

支付10元查看

 

分享到:
赞(0)

评论抢沙发

评论前必须登录!