霍比特人3五军之战(加长版)2K60帧[2014 国英5.1双语/中英字幕/39.1G]

笑点:勒苟拉斯学超级玛丽跳,阿佐格掉水,阿尔弗雷德的胸……卷福哦不对那条龙再一次死于话多……甘道夫被女王来了公主抱……片尾的素描分镜设定太美……索林内心戏太到位,精灵王冷艳到最后人性化了一下……末尾那段,让人想立刻重新过一遍魔戒三部曲。所以这部不是告别中土,而是一段旅途的开始。

霍比特人3:五军之战 The Hobbit: The Battle of the Five Armies (2014)

导演: 彼得·杰克逊
编剧: 弗兰·威尔士 / 菲利帕·鲍恩斯 / 彼得·杰克逊 / 吉尔莫·德尔·托罗 / J·R·R·托尔金
主演: 马丁·弗瑞曼 / 伊恩·麦克莱恩 / 理查德·阿米蒂奇 / 伊万杰琳·莉莉 / 李·佩斯 / 更多...
类型: 动作 / 奇幻 / 冒险
制片国家/地区: 美国 / 新西兰
语言: 英语
上映日期: 2015-01-23(中国大陆) / 2014-12-17(美国)
片长: 144分钟 / 164分钟(加长版)
又名: 哈比人:五军之战(港/台) / 哈比人:奇境再返(台) / 哈比人:汗血回归 / 指环王前传:霍比特人(下) / 霍比特人3:去而复返 / There and Back Again
IMDb链接: tt2310332
官方小站: 《五军之战》房间

 

霍比特人3:五军之战的剧情简介 · · · · · ·
被吵醒的史矛革大闹长湖镇,最终为人类巴德(卢克·伊万斯 Luke Evans 饰)射杀。索林·橡木盾(理查德·阿米蒂奇 Richard Armitage 饰)多年的夙愿终于实现,孤山埃尔波尔重新回到矮人手中。然而这位矮人王子仿佛被史矛革的贪婪和堆成山的黄金迷惑了心窍,他 疯狂地搜寻象征王位的阿肯宝石,不仅撕毁了付给长湖镇报酬的约定,更拒绝了精灵王(李·佩斯 Lee Pace 饰)索要本族国宝的要求,为此导致三族的战争一触即发。与此同时,苍白半兽人阿索格率领大军浩浩荡荡向孤山逼近。得知消息的灰袍巫师甘道夫(伊恩·麦凯伦 Ian McKellen 饰)从中调停斡旋,而被索林视为唯一朋友的霍比特人比尔博·巴金斯(马丁·弗里曼 Martin John C. Freeman 饰)则掌握着中土命运的关键。五军会战,爆发在即!

上集文件信息:
Unique ID : 238089990559996779400038979235355793110 (0xB31E76D7A2B2B66C68EFA5FCEE1F96D6)
Complete name : G:\火币特任3\【2014】获笔特仁3五军之战(加长版).上.mkv0
Format : Matroska
Format version : Version 4
File size : 19.6 GiB
Duration : 1 h 32 min
Overall bit rate : 30.4 Mb/s
Movie name : 【2014】[时光60帧.2K]霍比特人3五军之战(加长版).H265.10bit.DTS-ES.4KSG.国英5.1双语.中英字幕
Encoded date : UTC 2020-05-04 10:57:43
Writing application : mkvmerge v46.0.0 ('No Deeper Escape') 64-bit
Writing library : libebml v1.3.10 + libmatroska v1.5.2
Cover : Yes
Attachments : 微软雅黑.ttf / cover.jpg
FileExtension_Invalid : mkv mk3d mka mks

Video
ID : 1
Format : HEVC
Format/Info : High Efficiency Video Coding
Format profile : Main@L5@Main
Codec ID : V_MPEGH/ISO/HEVC
Duration : 1 h 32 min
Bit rate : 27.3 Mb/s
Width : 2 560 pixels
Height : 1 440 pixels
Display aspect ratio : 16:9
Frame rate mode : Constant
Frame rate : 60.000 FPS
Color space : YUV
Chroma subsampling : 4:2:0
Bit depth : 8 bits
Bits/(Pixel*Frame) : 0.124
Stream size : 17.6 GiB (90%)
Title : 4K时光 4kSG.COM
Language : English
Default : Yes
Forced : No

Audio #1
ID : 2
Format : DTS ES
Format/Info : Digital Theater Systems
Commercial name : DTS-ES Matrix
Codec ID : A_DTS
Duration : 1 h 32 min
Bit rate mode : Constant
Bit rate : 1 509 kb/s
Channel(s) : 6 channels
Channel(s)_Original : 7 channels
ChannelLayout_Original : C L R Ls Rs Cs LFE
Sampling rate : 48.0 kHz
Frame rate : 93.750 FPS (512 SPF)
Bit depth : 16 bits
Compression mode : Lossy
Delay relative to video : 10 ms
Stream size : 995 MiB (5%)
Title : (01)国语 DTS-ES 5.1
Language : Chinese
Default : Yes
Forced : No

Audio #2
ID : 3
Format : DTS
Format/Info : Digital Theater Systems
Codec ID : A_DTS
Duration : 1 h 32 min
Bit rate mode : Constant
Bit rate : 1 509 kb/s
Channel(s) : 6 channels
Channel layout : C L R Ls Rs LFE
Sampling rate : 48.0 kHz
Frame rate : 93.750 FPS (512 SPF)
Bit depth : 24 bits
Compression mode : Lossy
Delay relative to video : 10 ms
Stream size : 995 MiB (5%)
Title : (02)英语 DTS-ES 5.1
Language : English
Default : No
Forced : No

Text #1
ID : 4
Format : ASS
Codec ID : S_TEXT/ASS
Codec ID/Info : Advanced Sub Station Alpha
Duration : 1 h 31 min
Bit rate : 76 b/s
Count of elements : 1048
Compression mode : Lossless
Stream size : 51.4 KiB (0%)
Title : 国配字幕
Language : Chinese
Default : Yes
Forced : No

Text #2
ID : 5
Format : ASS
Codec ID : S_TEXT/ASS
Codec ID/Info : Advanced Sub Station Alpha
Duration : 1 h 31 min
Bit rate : 154 b/s
Count of elements : 2056
Compression mode : Lossless
Stream size : 103 KiB (0%)
Title : 中英文字幕
Language : English
Default : No
Forced : No

Text #3
ID : 6
Format : ASS
Codec ID : S_TEXT/ASS
Codec ID/Info : Advanced Sub Station Alpha
Duration : 1 h 31 min
Bit rate : 77 b/s
Count of elements : 1071
Compression mode : Lossless
Stream size : 52.1 KiB (0%)
Title : 中文字幕
Language : Chinese
Default : No
Forced : No

Menu
00:00:00.000 : en:00:00:00.000
00:05:12.395 : en:00:05:12.395
00:12:47.058 : en:00:12:47.058
00:13:19.298 : en:00:13:19.298
00:18:57.428 : en:00:18:57.428
00:23:42.171 : en:00:23:42.171
00:24:56.161 : en:00:24:56.161
00:26:04.563 : en:00:26:04.563
00:27:33.026 : en:00:27:33.026
00:35:45.685 : en:00:35:45.685
00:36:41.282 : en:00:36:41.282
00:40:41.898 : en:00:40:41.898
00:42:01.144 : en:00:42:01.144
00:43:11.756 : en:00:43:11.756
00:46:16.148 : en:00:46:16.148
00:51:27.668 : en:00:51:27.668
00:54:57.961 : en:00:54:57.961
00:56:14.830 : en:00:56:14.830
00:58:31.299 : en:00:58:31.299
01:00:26.957 : en:01:00:26.957
01:02:43.593 : en:01:02:43.593
01:06:10.175 : en:01:06:10.175
01:12:23.297 : en:01:12:23.297
01:17:22.555 : en:01:17:22.555
01:20:36.331 : en:01:20:36.331
01:24:57.217 : en:01:24:57.217
01:28:41.775 : en:01:28:41.775
01:30:52.280 : en:01:30:52.280

下集文件信息:

General
Unique ID : 214097668932935256811951877361750566700 (0xA111B60EB8E8B56F6CBEEB7961ACE72C)
Complete name : G:\火币特任3\【2014】获笔特仁3五军之战(加长版).下.mkv0
Format : Matroska
Format version : Version 4
File size : 19.6 GiB
Duration : 1 h 11 min
Overall bit rate : 39.0 Mb/s
Movie name : 【2014】[时光60帧.2K]霍比特人3五军之战(加长版).H265.10bit.DTS-ES.4KSG.国英5.1双语.中英字幕
Encoded date : UTC 2020-05-04 10:57:43
Writing application : mkvmerge v46.0.0 ('No Deeper Escape') 64-bit
Writing library : libebml v1.3.10 + libmatroska v1.5.2
Cover : Yes
Attachments : 微软雅黑.ttf / cover.jpg
FileExtension_Invalid : mkv mk3d mka mks

Video
ID : 1
Format : HEVC
Format/Info : High Efficiency Video Coding
Format profile : Main@L5@Main
Codec ID : V_MPEGH/ISO/HEVC
Duration : 1 h 11 min
Bit rate : 35.9 Mb/s
Width : 2 560 pixels
Height : 1 440 pixels
Display aspect ratio : 16:9
Frame rate mode : Constant
Frame rate : 60.000 FPS
Color space : YUV
Chroma subsampling : 4:2:0
Bit depth : 8 bits
Bits/(Pixel*Frame) : 0.162
Stream size : 18.0 GiB (92%)
Title : 4K时光 4kSG.COM
Language : English
Default : Yes
Forced : No

Audio #1
ID : 2
Format : DTS ES
Format/Info : Digital Theater Systems
Commercial name : DTS-ES Matrix
Codec ID : A_DTS
Duration : 1 h 11 min
Bit rate mode : Constant
Bit rate : 1 509 kb/s
Channel(s) : 6 channels
Channel(s)_Original : 7 channels
ChannelLayout_Original : C L R Ls Rs Cs LFE
Sampling rate : 48.0 kHz
Frame rate : 93.750 FPS (512 SPF)
Bit depth : 16 bits
Compression mode : Lossy
Delay relative to video : 4 ms
Stream size : 776 MiB (4%)
Title : (01)国语 DTS-ES 5.1
Language : Chinese
Default : Yes
Forced : No

Audio #2
ID : 3
Format : DTS
Format/Info : Digital Theater Systems
Codec ID : A_DTS
Duration : 1 h 11 min
Bit rate mode : Constant
Bit rate : 1 509 kb/s
Channel(s) : 6 channels
Channel layout : C L R Ls Rs LFE
Sampling rate : 48.0 kHz
Frame rate : 93.750 FPS (512 SPF)
Bit depth : 24 bits
Compression mode : Lossy
Delay relative to video : 4 ms
Stream size : 776 MiB (4%)
Title : (02)英语 DTS-ES 5.1
Language : English
Default : No
Forced : No

Text #1
ID : 4
Format : ASS
Codec ID : S_TEXT/ASS
Codec ID/Info : Advanced Sub Station Alpha
Duration : 58 min 41 s
Bit rate : 42 b/s
Count of elements : 384
Compression mode : Lossless
Stream size : 18.3 KiB (0%)
Title : 国配字幕
Language : Chinese
Default : Yes
Forced : No

Text #2
ID : 5
Format : ASS
Codec ID : S_TEXT/ASS
Codec ID/Info : Advanced Sub Station Alpha
Duration : 58 min 35 s
Bit rate : 85 b/s
Count of elements : 760
Compression mode : Lossless
Stream size : 36.8 KiB (0%)
Title : 中英文字幕
Language : English
Default : No
Forced : No

Text #3
ID : 6
Format : ASS
Codec ID : S_TEXT/ASS
Codec ID/Info : Advanced Sub Station Alpha
Duration : 58 min 35 s
Bit rate : 43 b/s
Count of elements : 389
Compression mode : Lossless
Stream size : 18.6 KiB (0%)
Title : 中文字幕
Language : Chinese
Default : No
Forced : No

Menu
00:00:00.000 : en:01:30:52.280
00:00:52.160 : en:01:33:02.160
00:03:02.832 : en:01:35:12.832
00:06:22.490 : en:01:38:32.490
00:07:32.894 : en:01:39:42.894
00:08:50.596 : en:01:41:00.596
00:12:53.506 : en:01:45:03.506
00:15:03.636 : en:01:47:13.636
00:16:55.289 : en:01:49:05.289
00:17:53.013 : en:01:50:03.013
00:20:49.606 : en:01:52:59.606
00:21:41.283 : en:01:53:51.283
00:25:05.237 : en:01:57:15.237
00:33:28.573 : en:02:05:38.573
00:39:57.044 : en:02:12:07.044
00:43:16.243 : en:02:15:26.243
00:46:22.513 : en:02:18:32.513
00:47:57.441 : en:02:20:07.441
00:50:17.205 : en:02:22:27.205
00:54:01.596 : en:02:26:11.596
00:58:44.462 : en:02:30:54.462

霍比特人3五军之战(加长版)2K60帧下载地址:

链接:https://pan.baidu.com/s/1jp-PbEMelC0LshddsRsupw
提取码:

此处内容需要购买后查看,年费会员可免费查看

支付10元查看

 

分享到:
赞(0)

评论抢沙发

评论前必须登录!