双子杀手·4K原生60帧 【2019美国H2651国语/英语11.2Gb】

120fps+3D+2K / 立体空间下拍水的质感依旧让我觉得迷人,夜幕下的光线和面孔也受到这个新摄影机的青睐,老少史密斯呈现的效果(情感的与技术的)完成度也不错,可惜剧本问题确实很大,废笔太多,显然这是因为李安没有得到更大的创作自由,但在几场关键戏的视听调度上能明显看到处理共生关系的巧思。

导演: 李安
编剧: 戴维·贝尼奥夫 / 比利·雷 / 达伦·莱姆克
主演: 威尔·史密斯 / 玛丽·伊丽莎白·温斯特德 / 克莱夫·欧文 / 本尼迪克特·王 / 道格拉斯·霍奇斯 / 更多...
类型: 剧情 / 动作 / 科幻
制片国家/地区: 美国 / 中国大陆
语言: 英语 国语
上映日期: 2019-10-18(中国大陆) / 2019-09-25(匈牙利) / 2019-10-11(美国)
片长: 117分钟
又名: 双子任务:叠影危机(港) / 双子煞星
IMDb链接: tt1025100

双子杀手的剧情简介 · · · · · ·
效力于美国国防情报局的特工亨利·布罗根(威尔·史密斯 Will Smith 饰)是一名顶尖狙击手,在他的职业生涯中,曾奉命扫除许多威胁国家安全的恐怖分子。执行任务时的他下手果断,毫不迟疑。可是最后一次任务险些失手,却让他产生了动摇,进而提出解甲归田。怎奈放下屠刀的他,偶然听到了一个有关国家机密的大事,随即便招来杀人之祸。在躲过政府第一次围剿之后,他偕同因监视自己而意外被卷入其中的女特工丹妮(玛丽·伊丽莎白·温斯特德 Mary Elizabeth Winstead 饰)展开逃亡,投奔昔日战友巴伦(本尼迪克特·王 Benedict Wong 饰)。
未曾想新的杀手阴魂不散,尾随而至。更令亨利惊讶的是,追杀他的竟是年轻了25岁的另一个自己……

文件信息:
Unique ID : 329272483166273979488527530241703983460 (0xF7B792D2289F00FE1EEAB42D0E8AB964)
Complete name : G:\s-z【0274】双子杀手\s-z-0274双紫傻瘦4K60.mkv
Format : Matroska
Format version : Version 4
File size : 11.2 GiB
Duration : 1 h 57 min
Overall bit rate mode : Variable
Overall bit rate : 13.7 Mb/s
Encoded date : UTC 2020-06-08 01:24:24
Writing application : mkvmerge v44.0.0 ('Domino') 64-bit
Writing library : libebml v1.3.10 + libmatroska v1.5.2

Video
ID : 1
Format : HEVC
Format/Info : High Efficiency Video Coding
Format profile : Main 10@L5.1@Main
Codec ID : V_MPEGH/ISO/HEVC
Duration : 1 h 57 min
Bit rate : 9 086 kb/s
Width : 3 840 pixels
Height : 2 160 pixels
Display aspect ratio : 16:9
Frame rate mode : Constant
Frame rate : 59.940 (60000/1001) FPS
Color space : YUV
Chroma subsampling : 4:2:0
Bit depth : 10 bits
Bits/(Pixel*Frame) : 0.018
Stream size : 7.43 GiB (66%)
Language : English
Default : Yes
Forced : No

Audio #1
ID : 2
Format : AC-3
Format/Info : Audio Coding 3
Commercial name : Dolby Digital
Codec ID : A_AC3
Duration : 1 h 56 min
Bit rate mode : Constant
Bit rate : 384 kb/s
Channel(s) : 6 channels
Channel layout : L R C LFE Ls Rs
Sampling rate : 48.0 kHz
Frame rate : 31.250 FPS (1536 SPF)
Compression mode : Lossy
Delay relative to video : 1 s 0 ms
Stream size : 321 MiB (3%)
Title : 01.国语 5.1
Language : Chinese
Service kind : Complete Main
Default : Yes
Forced : No

Audio #2
ID : 3
Format : MLP FBA 16-ch
Format/Info : Meridian Lossless Packing FBA with 16-channel presentation
Commercial name : Dolby TrueHD with Dolby Atmos
Codec ID : A_TRUEHD
Duration : 1 h 57 min
Bit rate mode : Variable
Bit rate : 4 204 kb/s
Maximum bit rate : 7 944 kb/s
Channel(s) : 8 channels
Channel layout : L R C LFE Ls Rs Lb Rb
Sampling rate : 48.0 kHz
Frame rate : 1 200.000 FPS (40 SPF)
Compression mode : Lossless
Delay relative to video : 9 ms
Stream size : 3.44 GiB (31%)
Title : 01.英语 7.1
Language : English
Default : No
Forced : No
Number of dynamic objects : 11
Bed channel count : 1 channel
Bed channel configuration : LFE

Text
ID : 4
Format : ASS
Codec ID : S_TEXT/ASS
Codec ID/Info : Advanced Sub Station Alpha
Duration : 1 h 47 min
Bit rate : 517 b/s
Count of elements : 1444
Compression mode : Lossless
Stream size : 407 KiB (0%)
Title : 中文特效字幕
Language : Chinese
Default : Yes
Forced : No

下载地址:双子杀手·4K原生60帧

此处内容需要购买后查看,年费会员可免费查看

支付10元查看

分享到:
赞(0)

评论抢沙发

评论前必须登录!