环太平洋1·4K120帧【2013 美国 国语/英语5.1特效字幕】

超有诚意的商业片,机械设定和动作设计各种帅,日本元素是为向日本机器人动画致敬的吧。反正这片本来就不走此起彼伏的层次感路线,简单粗暴直抵高潮,还可以从头high到尾,人物塑造上的省力完全可以忽略不计。最后男女主抵头+拥抱替代一顿互咬的套路,加分!

导演: 吉尔莫·德尔·托罗
编剧: 特拉维斯·比彻姆 / 吉尔莫·德尔·托罗
主演: 查理·汉纳姆 / 菊地凛子 / 伊德里斯·艾尔巴 / 查理·戴 / 朗·普尔曼 / 更多...
类型: 动作 / 科幻 / 冒险
制片国家/地区: 美国
语言: 英语 / 日语 / 粤语 / 汉语普通话 / 俄语
上映日期: 2013-07-31(中国大陆) / 2013-07-12(美国)
片长: 131分钟
又名: 悍战太平洋(港)
IMDb链接: tt1663662

环太平洋的剧情简介 · · · · · ·
近未来,地球环境逐步恶化。神秘外星殖民者通过大洋底部的虫洞“缺口”将身形庞大、残冷迅猛、身藏剧毒的怪兽接连派往地球,有条不紊地实施着它们的殖民毁灭计划。为此,人类联手打造“贼鸥计划”,制造出与怪兽体型相当的机甲战士迎战,但随着怪兽渐次进化,机甲战士全面溃败,各国政要试图修筑偏于防守的“生命之墙”以阻挡侵略者的脚步,无奈很快遭遇挫折。在此危急关头,暗中仍推进“贼鸥计划”的斯特克·潘特考斯特将军(伊德瑞斯·艾尔巴 Idris Elba 饰)找回五年前曾遭受重大打击的“危险流浪者”驾驶员(查理·汉纳姆 Charlie Hunnam 饰),并通过严格选拔为他选择了新的搭档森麻子(菊地凛子 饰)。复活的“流浪者”即将与另外三台仅存的机甲战士迎战更强大的怪兽侵略者,同时寻找彻底扫除敌人的良机。
苍茫的大海之上,人类保卫之战接连而起……

文件信息:

Unique ID : 155144596210317469698007514150982783557 (0x74B7C329B4B68A656D2B914F8AE61245)
Complete name : G:\0289\极限版【2013】4K.120帧.还台屏羊1.H265.10bit.DTS.国英5.1双语.中英特效字幕+简繁英(原盘PGS)字幕.mkv
Format : Matroska
Format version : Version 4
File size : 16.1 GiB
Duration : 2 h 11 min
Overall bit rate : 17.5 Mb/s
Movie name : 极限版【2013】4K.120帧.环太平洋1.H265.10bit.DTS.国英5.1双语.中英特效字幕+简繁英(原盘PGS)字幕
Encoded date : UTC 2020-06-07 04:01:46
Writing application : mkvmerge v47.0.0 ('Black Flag') 64-bit
Writing library : libebml v1.3.10 + libmatroska v1.5.2
Cover : Yes
Attachments : cover.jpg / 微软雅黑.ttf

Video
ID : 1
Format : HEVC
Format/Info : High Efficiency Video Coding
Format profile : Main 10@L5.2@Main
Codec ID : V_MPEGH/ISO/HEVC
Duration : 2 h 11 min
Bit rate : 14.4 Mb/s
Width : 3 840 pixels
Height : 2 160 pixels
Display aspect ratio : 16:9
Frame rate mode : Variable
Frame rate : 117.977 FPS
Original frame rate : 120.000 FPS
Color space : YUV
Chroma subsampling : 4:2:0
Bit depth : 10 bits
Bits/(Pixel*Frame) : 0.015
Stream size : 13.2 GiB (82%)
Title : 4K时光 4kSG.Cn
Language : English
Default : Yes
Forced : No

Audio #1
ID : 2
Format : DTS
Format/Info : Digital Theater Systems
Codec ID : A_DTS
Duration : 2 h 11 min
Bit rate mode : Constant
Bit rate : 1 509 kb/s
Channel(s) : 6 channels
Channel layout : C L R Ls Rs LFE
Sampling rate : 48.0 kHz
Frame rate : 93.750 FPS (512 SPF)
Bit depth : 16 bits
Compression mode : Lossy
Stream size : 1.38 GiB (9%)
Title : 国语 DTS 5.1
Language : Chinese
Default : Yes
Forced : No

Audio #2
ID : 3
Format : DTS
Format/Info : Digital Theater Systems
Codec ID : A_DTS
Duration : 2 h 11 min
Bit rate mode : Constant
Bit rate : 1 509 kb/s
Channel(s) : 6 channels
Channel layout : C L R Ls Rs LFE
Sampling rate : 48.0 kHz
Frame rate : 93.750 FPS (512 SPF)
Bit depth : 24 bits
Compression mode : Lossy
Stream size : 1.38 GiB (9%)
Title : 英语 DTS 5.1
Language : English
Default : No
Forced : No

Text #1
ID : 4
Format : ASS
Codec ID : S_TEXT/ASS
Codec ID/Info : Advanced Sub Station Alpha
Duration : 2 h 10 min
Bit rate : 175 b/s
Count of elements : 1626
Compression mode : Lossless
Stream size : 168 KiB (0%)
Title : 中英字幕
Language : Chinese
Default : Yes
Forced : No

Text #2
ID : 5
Format : PGS
Muxing mode : zlib
Codec ID : S_HDMV/PGS
Codec ID/Info : Picture based subtitle format used on BDs/HD-DVDs
Duration : 2 h 10 min
Bit rate : 24.2 kb/s
Count of elements : 3322
Stream size : 22.6 MiB (0%)
Title : 中文简体(原盘PGS)字幕
Language : Chinese
Default : No
Forced : No

Text #3
ID : 6
Format : PGS
Muxing mode : zlib
Codec ID : S_HDMV/PGS
Codec ID/Info : Picture based subtitle format used on BDs/HD-DVDs
Duration : 2 h 10 min
Bit rate : 24.6 kb/s
Count of elements : 3344
Stream size : 23.0 MiB (0%)
Title : 中文繁体(原盘PGS)字幕
Language : Chinese
Default : No
Forced : No

Text #4
ID : 7
Format : PGS
Muxing mode : zlib
Codec ID : S_HDMV/PGS
Codec ID/Info : Picture based subtitle format used on BDs/HD-DVDs
Duration : 2 h 10 min
Bit rate : 24.1 kb/s
Count of elements : 3320
Stream size : 22.5 MiB (0%)
Title : 中文繁体(原盘PGS)字幕
Language : Chinese
Default : No
Forced : No

Text #5
ID : 8
Format : PGS
Muxing mode : zlib
Codec ID : S_HDMV/PGS
Codec ID/Info : Picture based subtitle format used on BDs/HD-DVDs
Duration : 2 h 10 min
Bit rate : 31.2 kb/s
Count of elements : 3670
Stream size : 29.1 MiB (0%)
Title : 英文(原盘PGS)字幕
Language : English
Default : No
Forced : No

Menu
00:00:00.000 : en:Chapter 1
00:09:09.090 : en:Chapter 2
00:18:35.781 : en:Chapter 3
00:23:04.299 : en:Chapter 4
00:33:00.353 : en:Chapter 5
00:42:44.853 : en:Chapter 6
00:50:01.623 : en:Chapter 7
01:01:09.624 : en:Chapter 8
01:14:45.063 : en:Chapter 9
01:22:21.269 : en:Chapter 10
01:32:09.899 : en:Chapter 11
01:41:55.567 : en:Chapter 12
01:51:37.816 : en:Chapter 13
01:59:20.987 : en:Chapter 14
02:02:17.788 : en:Chapter 15

点此参与众筹

环太平洋1·4K120帧下载地址:

链接:https://pan.baidu.com/s/1NB2-HCNfC4T5xu98eZXg1w
提取码:

此处内容需要购买后查看,年费会员可免费查看

支付10元查看


复制这段内容后打开百度网盘手机App,操作更方便哦

分享到:
赞(4)

评论1

评论前必须登录!

  1. #1
    这个没有提取码???
    wang32922020-07-17 20:33:53