魔兽 Warcraft·60帧【2016美国 1080P 国英双语5.1 中英字幕23.91GB】

电影中好多场景让我这老玩家热血沸腾。电影故事简单点可以理解,毕竟不是所有人都玩过魔兽,了解魔兽历史,片中好多镜头让人难忘,好多熟悉的地图一幕幕出现在眼前。人物方面印象最深的还是狗蛋,还有我们绿绿的小萨尔。希望可以很快看到第二部魔兽电影上映。

魔兽 Warcraft·魔兽世界

导演: 邓肯·琼斯
编剧: 邓肯·琼斯 / 查尔斯·里维特
主演: 崔维斯·费米尔 / 托比·凯贝尔 / 宝拉·巴顿 / 吴彦祖 / 本·福斯特 / 更多...
类型: 动作 / 奇幻 / 冒险
官方网站: www.warcraftmovie.com帧
制片国家/地区: 美国 / 中国大陆 / 加拿大 / 日本
语言: 英语
上映日期: 2016-06-08(中国大陆) / 2016-05-24(巴黎首映) / 2016-06-10(美国)
片长: 124分钟
又名: 魔兽:崛起(台) / 魔兽争霸:战雄崛起(港) / 魔兽争霸 / 魔兽世界 / World of Warcraft / Warcraft: The Beginning
IMDb链接: tt0803096
官方小站: 走进《魔兽》世界的大门

魔兽的剧情简介 · · · · · ·
这是一个人类和兽人共存,和谐相处,互不侵犯的世界。人类生活在艾泽拉斯大陆中,兽人则在德拉诺劳作繁衍。某日,邪恶的兽人古尔丹(吴彦祖 饰)出现了,它打开了黑暗之门,肆意屠戮手无寸铁的人类,将艾泽拉斯大陆变为了一片地狱的火海。与此同时,曾经与世无争的兽人们如今变得凶猛残暴,他们来到人类的领地,在这里烧杀抢掠,无恶不作。
杜隆坦(托比·凯贝尔 Toby Kebbell 饰)是霜狼氏族的酋长,他发现了古尔丹的野心和阴谋,于是带领着自己的部族千里迢迢来到了艾泽拉斯,在此处,人类领袖洛萨(崔维斯·费米尔 Travis Fimmel 饰)亦在寻找结束战争的两全之道。

General 上集
Unique ID : 189171741244437051823237446167900453765 (0x8E5126F0A5284A535B137F3CCC57FB85)
Complete name : G:\65 魔瘦\s-g-魔瘦 上.mkv
Format : Matroska
Format version : Version 4
File size : 13.1 GiB
Duration : 1 h 5 min
Overall bit rate mode : Variable
Overall bit rate : 28.5 Mb/s
Encoded date : UTC 2020-04-18 14:02:04
Writing application : mkvmerge v19.0.0 ('Brave Captain') 64-bit
Writing library : libebml v1.3.5 + libmatroska v1.4.8
Cover : Yes
Attachments : Cover.png

Video
ID : 1
Format : AVC
Format/Info : Advanced Video Codec
Format profile : High@L4.2
Format settings : CABAC / 3 Ref Frames
Format settings, CABAC : Yes
Format settings, Reference fra : 3 frames
Codec ID : V_MPEG4/ISO/AVC
Duration : 1 h 5 min
Bit rate mode : Variable
Bit rate : 23.0 Mb/s
Width : 1 920 pixels
Height : 788 pixels
Display aspect ratio : 2.40:1
Frame rate mode : Constant
Frame rate : 59.940 (60000/1001) FPS
Standard : PAL
Color space : YUV
Chroma subsampling : 4:2:0
Bit depth : 8 bits
Scan type : Progressive
Bits/(Pixel*Frame) : 0.254
Stream size : 10.6 GiB (81%)
Language : English
Default : No
Forced : No
Color range : Limited
Color primaries : BT.709
Transfer characteristics : BT.709
Matrix coefficients : BT.709

Audio #1
ID : 2
Format : MLP FBA 16-ch
Format/Info : Meridian Lossless Packing FBA with 16-channel presentation
Commercial name : Dolby TrueHD with Dolby Atmos
Codec ID : A_TRUEHD
Duration : 1 h 5 min
Bit rate mode : Variable
Bit rate : 4 799 kb/s
Maximum bit rate : 7 893 kb/s
Channel(s) : 8 channels
Channel layout : L R C LFE Ls Rs Lb Rb
Sampling rate : 48.0 kHz
Frame rate : 1 200.000 FPS (40 SPF)
Compression mode : Lossless
Stream size : 2.21 GiB (17%)
Default : No
Forced : No
Number of dynamic objects : 11
Bed channel count : 1 channel
Bed channel configuration : LFE

Audio #2
ID : 3
Format : AC-3
Format/Info : Audio Coding 3
Commercial name : Dolby Digital
Codec ID : A_AC3
Duration : 1 h 5 min
Bit rate mode : Constant
Bit rate : 640 kb/s
Channel(s) : 6 channels
Channel layout : L R C LFE Ls Rs
Sampling rate : 48.0 kHz
Frame rate : 31.250 FPS (1536 SPF)
Compression mode : Lossy
Stream size : 302 MiB (2%)
Service kind : Complete Main
Default : Yes
Forced : No

Text
ID : 4
Format : ASS
Codec ID : S_TEXT/ASS
Codec ID/Info : Advanced Sub Station Alpha
Duration : 1 h 5 min
Bit rate : 146 b/s
Count of elements : 650
Compression mode : Lossless
Stream size : 70.2 KiB (0%)
Default : Yes
Forced : No

General 下集
Unique ID : 27962321960613713670921331649822549957 (0x150958E9D2A96DF199DE2EF0F45767C5)
Complete name : G:\65 魔瘦\s-g-魔瘦 下.mkv
Format : Matroska
Format version : Version 4
File size : 11.4 GiB
Duration : 57 min 14 s
Overall bit rate mode : Variable
Overall bit rate : 28.5 Mb/s
Encoded date : UTC 2020-04-18 14:26:54
Writing application : mkvmerge v19.0.0 ('Brave Captain') 64-bit
Writing library : libebml v1.3.5 + libmatroska v1.4.8
Cover : Yes
Attachments : Cover.png

Video
ID : 1
Format : AVC
Format/Info : Advanced Video Codec
Format profile : High@L4.2
Format settings : CABAC / 3 Ref Frames
Format settings, CABAC : Yes
Format settings, Reference fra : 3 frames
Codec ID : V_MPEG4/ISO/AVC
Duration : 57 min 13 s
Bit rate mode : Variable
Bit rate : 23.0 Mb/s
Width : 1 920 pixels
Height : 788 pixels
Display aspect ratio : 2.40:1
Frame rate mode : Constant
Frame rate : 59.940 (60000/1001) FPS
Standard : PAL
Color space : YUV
Chroma subsampling : 4:2:0
Bit depth : 8 bits
Scan type : Progressive
Bits/(Pixel*Frame) : 0.254
Stream size : 9.14 GiB (80%)
Language : English
Default : No
Forced : No
Color range : Limited
Color primaries : BT.709
Transfer characteristics : BT.709
Matrix coefficients : BT.709

Audio #1
ID : 2
Format : MLP FBA 16-ch
Format/Info : Meridian Lossless Packing FBA with 16-channel presentation
Commercial name : Dolby TrueHD with Dolby Atmos
Codec ID : A_TRUEHD
Duration : 57 min 14 s
Bit rate mode : Variable
Bit rate : 4 875 kb/s
Maximum bit rate : 7 893 kb/s
Channel(s) : 8 channels
Channel layout : L R C LFE Ls Rs Lb Rb
Sampling rate : 48.0 kHz
Frame rate : 1 200.000 FPS (40 SPF)
Compression mode : Lossless
Stream size : 1.95 GiB (17%)
Default : No
Forced : No
Number of dynamic objects : 11
Bed channel count : 1 channel
Bed channel configuration : LFE

Audio #2
ID : 3
Format : AC-3
Format/Info : Audio Coding 3
Commercial name : Dolby Digital
Codec ID : A_AC3
Duration : 57 min 14 s
Bit rate mode : Constant
Bit rate : 640 kb/s
Channel(s) : 6 channels
Channel layout : L R C LFE Ls Rs
Sampling rate : 48.0 kHz
Frame rate : 31.250 FPS (1536 SPF)
Compression mode : Lossy
Stream size : 262 MiB (2%)
Service kind : Complete Main
Default : Yes
Forced : No

Text
ID : 4
Format : ASS
Codec ID : S_TEXT/ASS
Codec ID/Info : Advanced Sub Station Alpha
Duration : 48 min 58 s
Bit rate : 130 b/s
Count of elements : 431
Compression mode : Lossless
Stream size : 46.9 KiB (0%)
Default : Yes
Forced : No

链接:https://pan.baidu.com/s/1RrlIiHy-vWxohO3STBGDHw
密码:

分享到:
赞(1)

评论抢沙发

评论前必须登录!