阿丽塔:战斗天使·60帧【2019国英双语DTS5.1 1080P 30.07GB】

对于原作来说反正马借战争前(也就是全九卷的第一部前三分之二)都是序幕,所以无所谓要抱什么预期或降低预期…骂街战争时怎么呈现才要说说预期:除了乔治·米勒谁都不接受,木城这个mad max粉真是浪得虚名。总之,电影改编的相当可以啊,一个是对原作的改造,甚至包括一些lo剧情点的前移,然后就是(让人惊讶地)对全两卷本ova中原创角色的进一步改良;虽然本质上是搭了青少年后启示录敌托帮的科幻卖点(算是末班车了),但掏出心脏来告白还是很硬核的,随便秒同类型…虽然我还是觉得原作掏心打赌更酷一点,而且小男朋友的哥哥右手背景故事和阳子的壁咚改没了,让这两跨越三百年之恋看着短版、比较漂。

阿丽塔:战斗天使·铳梦 / 铳梦:战斗天使(港) / 艾莉塔:战斗天使(台)

导演: 罗伯特·罗德里格兹
编剧: 詹姆斯·卡梅隆 / 莱塔·卡罗格里迪斯 / 木城幸人
主演: 罗莎·萨拉查 / 克里斯托弗·瓦尔兹 / 基恩·约翰逊 / 艾德·斯克林 / 马赫沙拉·阿里 / 更多...
类型: 动作 / 科幻 / 冒险
官方网站: www.foxmovies.com/movies/alita-battle-angel
制片国家/地区: 美国
语言: 英语 / 国语
上映日期: 2019-02-05(中国台湾) / 2019-02-22(中国大陆) / 2019-02-14(美国)
片长: 122分钟
又名: 铳梦 / 铳梦:战斗天使(港) / 艾莉塔:战斗天使(台)
IMDb链接: tt0437086

故事发生在遥远的26世纪,外科医生依德(克里斯托弗·瓦尔兹 Christoph Waltz 饰)在垃圾场里捡到了只剩下头部的机械少女将她带回家中,给她装上了本来为自己已故的女儿所准备的义体,并取名阿丽塔(罗莎·萨拉扎尔 Rosa Salazar 饰)。苏醒后的阿丽塔对这个五彩斑斓但却暴力而又残酷的世界产生了浓厚的兴趣,在结识了青年雨果(基恩·约翰逊 Keean Johnson 饰)后,阿丽塔开始接触名为机动球的运动,并在比赛中展现出了惊人的格斗天赋。
在废铁城居民们的头顶,漂浮着巨大的浮空城市撒冷,废铁城居民们的一切劳作和付出,都是为了给撒冷提供继续运作的燃料。在大财阀维克特(马赫沙拉·阿里 Mahershala Ali 饰)所设立的机动球比赛中,最终获得冠军的人能够获得前往撒冷生活的资格,阿丽塔决定利用自己的格斗天赋参加比赛,却被卷入了一个巨大的阴谋之中。

由于分上集下集2个文件,已调配好长译公映国语配音5.1,原声英语7.1,中英字幕,播放时自己切换。

General
Unique ID : 129526247309113278742215499210662112671 (0x6171D90B3BFF4643C37ADE02B37C6D9F)
Complete name : G:\战斗天使-阿丽\战斗天使-1080P-上 .mkv
Format : Matroska
Format version : Version 4
File size : 15.5 GiB
Duration : 1 h 3 min
Overall bit rate mode : Variable
Overall bit rate : 35.3 Mb/s
Encoded date : UTC 2020-03-30 12:16:27
Writing application : mkvmerge v36.0.0 ('Is That Jazz?') 64-bit
Writing library : libebml v1.3.9 + libmatroska v1.5.2

Video
ID : 1
Format : AVC
Format/Info : Advanced Video Codec
Format profile : High@L4.1
Format settings : CABAC / 5 Ref Frames
Format settings, CABAC : Yes
Format settings, Reference fra : 5 frames
Codec ID : V_MPEG4/ISO/AVC
Duration : 1 h 3 min
Bit rate : 30.0 Mb/s
Width : 1 920 pixels
Height : 800 pixels
Display aspect ratio : 2.40:1
Frame rate mode : Constant
Frame rate : 59.940 (60000/1001) FPS
Color space : YUV
Chroma subsampling : 4:2:0
Bit depth : 8 bits
Scan type : Progressive
Bits/(Pixel*Frame) : 0.326
Stream size : 13.1 GiB (85%)
Writing library : x264 core 146 r2538 121396c
Encoding settings : cabac=1 / ref=5 / deblock=1:-2:-2 / analyse=0x3:0x113 / me=umh / subme=9 / psy=1 / psy_rd=1.00:0.25 / mixed_ref=1 / me_range=32 / chroma_me=1 / trellis=2 / 8x8dct=1 / cqm=0 / deadzone=6,6 / fast_pskip=1 / chroma_qp_offset=-4 / threads=12 / lookahead_threads=2 / sliced_threads=0 / nr=0 / decimate=0 / interlaced=0 / bluray_compat=0 / constrained_intra=0 / bframes=3 / b_pyramid=2 / b_adapt=2 / b_bias=0 / direct=3 / weightb=1 / open_gop=0 / weightp=2 / keyint=600 / keyint_min=60 / scenecut=40 / intra_refresh=0 / rc_lookahead=60 / rc=2pass / mbtree=1 / bitrate=30000 / ratetol=1.0 / qcomp=0.80 / qpmin=0 / qpmax=69 / qpstep=4 / cplxblur=20.0 / qblur=0.5 / vbv_maxrate=50000 / vbv_bufsize=50000 / nal_hrd=none / filler=0 / ip_ratio=1.10 / aq=1:0.50
Language : English
Default : No
Forced : No

Audio #1
ID : 2
Format : DTS ES XLL
Format/Info : Digital Theater Systems
Commercial name : DTS-HD Master Audio
Codec ID : A_DTS
Duration : 1 h 3 min
Bit rate mode : Variable
Bit rate : 4 819 kb/s
Channel(s) : 8 channels
Channel layout : C L R Ls Rs LFE Lb Rb
Sampling rate : 48.0 kHz
Frame rate : 93.750 FPS (512 SPF)
Bit depth : 24 bits
Compression mode : Lossless
Stream size : 2.12 GiB (14%)
Language : English
Default : No
Forced : No

Audio #2
ID : 4
Format : AC-3
Format/Info : Audio Coding 3
Commercial name : Dolby Digital
Codec ID : A_AC3
Duration : 1 h 3 min
Bit rate mode : Constant
Bit rate : 640 kb/s
Channel(s) : 6 channels
Channel layout : L R C LFE Ls Rs
Sampling rate : 48.0 kHz
Frame rate : 31.250 FPS (1536 SPF)
Compression mode : Lossy
Stream size : 289 MiB (2%)
Language : Chinese
Service kind : Complete Main
Default : Yes
Forced : No

Text
ID : 3
Format : ASS
Codec ID : S_TEXT/ASS
Codec ID/Info : Advanced Sub Station Alpha
Duration : 1 h 2 min
Bit rate : 151 b/s
Count of elements : 758
Compression mode : Lossless
Stream size : 69.2 KiB (0%)
Default : No
Forced : No

分享到:
赞(2)

评论抢沙发

评论前必须登录!