釜山行2·半岛 60帧【H265.10bit韩语5.1原声中文字幕6.85GB】

釜山行2:半岛 부산행2-반도 (2020)

导演: 延尚昊
编剧: 延尚昊
主演: 姜栋元 / 李贞贤 / 权海骁 / 李来 / 金敏载 / 更多...
类型: 动作 / 惊悚
制片国家/地区: 韩国
语言: 韩语 / 英语 / 粤语
上映日期: 2020-07-15(韩国)
片长: 115分钟
又名: 釜山行2 / 半岛 / 尸杀半岛(港) / 尸速列车:感染半岛(台) / Peninsula / Train to Busan 2
IMDb链接: tt8850222

釜山行2:半岛的剧情简介 · · · · · ·
上集列车驶往釜山后,丧尸病毒瞬间全国爆发,4年后的韩国尸毒遍野,被全球孤立,沦为死城。所馀无几的生还者踏上最后一艘难民船,离开被世人遗弃的朝鲜半岛。退伍军人正锡(姜栋元 饰)和家人有幸登上难民船,但一上船便发现丧尸潜伏,幸得香港收容,这批韩国人才得以上岸,以「半岛难民」身分在香港重新生活。但正锡受不住金钱诱惑,加入了一个回国窃取巨额美金的行动。他和队友重返韩国,竟然发现仍有一班未受尸毒感染的人在挣扎求存,正锡决定带这班倖存者逃生,他们最后能否成功逃出尸杀半岛?

文件信息:
Unique ID : 165561168580166381672538761677721633541 (0x7C8DEBD50CB11B54CB2EDBFFF3D10305)
Complete name : G:\BaiduNetdiskDownload\高码版【2020】1080P.60帧.釜山行2半岛.H265.10bit.Dolby.韩语5.1原声.国语字幕.mkv
Format : Matroska
Format version : Version 4
File size : 6.86 GiB
Duration : 1 h 55 min
Overall bit rate : 8 478 kb/s
Movie name : 高码版【2020】1080P.60帧.釜山行2半岛.H265.10bit.Dolby韩语5.1原声.国语字幕
Encoded date : UTC 2020-08-26 16:12:47
Writing application : mkvmerge v48.0.0 ('Fortress Around Your Heart') 64-bit
Writing library : libebml v1.4.0 + libmatroska v1.6.0
Cover : Yes
Attachments : cover.jpg / 微软雅黑.ttf

Video
ID : 1
Format : HEVC
Format/Info : High Efficiency Video Coding
Format profile : Main 10@L4.1@Main
Codec ID : V_MPEGH/ISO/HEVC
Duration : 1 h 55 min
Bit rate : 8 072 kb/s
Width : 1 920 pixels
Height : 1 080 pixels
Display aspect ratio : 16:9
Frame rate mode : Constant
Frame rate : 60.000 FPS
Color space : YUV
Chroma subsampling : 4:2:0
Bit depth : 10 bits
Bits/(Pixel*Frame) : 0.065
Stream size : 6.53 GiB (95%)
Language : Korean
Default : Yes
Forced : No

Audio
ID : 2
Format : AC-3
Format/Info : Audio Coding 3
Commercial name : Dolby Digital
Codec ID : A_AC3
Duration : 1 h 55 min
Bit rate mode : Constant
Bit rate : 384 kb/s
Channel(s) : 6 channels
Channel layout : L R C LFE Ls Rs
Sampling rate : 48.0 kHz
Frame rate : 31.250 FPS (1536 SPF)
Compression mode : Lossy
Stream size : 318 MiB (5%)
Title : 韩语原声 Dolby 5.1
Language : Korean
Service kind : Complete Main
Default : Yes
Forced : No

Text
ID : 3
Format : ASS
Codec ID : S_TEXT/ASS
Codec ID/Info : Advanced Sub Station Alpha
Duration : 1 h 49 min
Bit rate : 54 b/s
Count of elements : 823
Compression mode : Lossless
Stream size : 44.0 KiB (0%)
Title : 国语字幕
Language : Chinese
Default : Yes
Forced : No

釜山行2·半岛 60帧百度网盘下载

链接:https://pan.baidu.com/s/1fkE8QG1EznlodCWvQdPYBg
提取码:

此处内容需要购买后查看,年费会员可免费查看

支付3元查看


复制这段内容后打开百度网盘手机App,操作更方便哦

分享到:
赞(0)

评论抢沙发

评论前必须登录!