霍比特人2·史矛革之战 2K60帧【国语/原声H265加长版23.42GB】

史矛革是一条废话很多的龙

霍比特人2:史矛革之战 The Hobbit: The Desolation of Smaug (2013)

导演: 彼得·杰克逊
编剧: J·R·R·托尔金 / 弗兰·威尔士 / 菲利帕·鲍恩斯 / 彼得·杰克逊 / 吉尔莫·德尔·托罗
主演: 伊恩·麦克莱恩 / 马丁·弗瑞曼 / 理查德·阿米蒂奇 / 本尼迪克特·康伯巴奇 / 奥兰多·布鲁姆 / 更多...
类型: 动作 / 奇幻 / 冒险
官方网站: www.thehobbit.com
制片国家/地区: 美国 / 新西兰
语言: 英语
上映日期: 2014-02-21(中国大陆) / 2013-12-13(美国)
片长: 161分钟 / 186分钟(加长版)
又名: 霍比特人2:史矛革荒漠 / 哈比人:荒谷魔龙(港) / 哈比人:荒谷恶龙(台) / 霍比特人2:斯毛戈荒漠 / 指环王前传:霍比特人(中) / The Hobbit: Part 2
IMDb链接: tt1170358

文件信息:

Unique ID : 224019305748533346587557249213672718770 (0xA8888C851DC7CEB9712F4B1F23E001B2)
Complete name : G:\霍比特人2\【2013】2K.60帧.霍比特人2史矛革之战(加长版).H265.DTS.国英5.1双语.mkv
Format : Matroska
Format version : Version 4
File size : 13.0 GiB
Duration : 1 h 34 min
Overall bit rate : 19.7 Mb/s
Movie name : 【2013】2K.60帧.霍比特人2史矛革之战(加长版).H265.DTS.国英5.1双语
Encoded date : UTC 2020-06-14 01:54:19
Writing application : mkvmerge v47.0.0 ('Black Flag') 64-bit
Writing library : libebml v1.3.10 + libmatroska v1.5.2
Cover : Yes
Attachments : 微软雅黑.ttf / cover.jpg

Video
ID : 1
Format : HEVC
Format/Info : High Efficiency Video Coding
Format profile : Main@L5@Main
Codec ID : V_MPEGH/ISO/HEVC
Duration : 1 h 34 min
Bit rate : 16.6 Mb/s
Width : 2 560 pixels
Height : 1 440 pixels
Display aspect ratio : 16:9
Frame rate mode : Constant
Frame rate : 60.000 FPS
Color space : YUV
Chroma subsampling : 4:2:0
Bit depth : 8 bits
Bits/(Pixel*Frame) : 0.075
Stream size : 11.0 GiB (85%)
Title : 4K时光 4kSG.COM
Language : English
Default : Yes
Forced : No

Audio #1
ID : 2
Format : DTS
Format/Info : Digital Theater Systems
Codec ID : A_DTS
Duration : 1 h 34 min
Bit rate mode : Constant
Bit rate : 1 509 kb/s
Channel(s) : 6 channels
Channel layout : C L R Ls Rs LFE
Sampling rate : 48.0 kHz
Frame rate : 93.750 FPS (512 SPF)
Bit depth : 16 bits
Compression mode : Lossy
Delay relative to video : 9 ms
Stream size : 1 019 MiB (8%)
Title : 国语
Language : Chinese
Default : Yes
Forced : No

Audio #2
ID : 3
Format : DTS
Format/Info : Digital Theater Systems
Codec ID : A_DTS
Duration : 1 h 34 min
Bit rate mode : Constant
Bit rate : 1 509 kb/s
Channel(s) : 6 channels
Channel layout : C L R Ls Rs LFE
Sampling rate : 48.0 kHz
Frame rate : 93.750 FPS (512 SPF)
Bit depth : 24 bits
Compression mode : Lossy
Delay relative to video : 9 ms
Stream size : 1 019 MiB (8%)
Title : 英语
Language : English
Default : No
Forced : No

Text #1
ID : 4
Format : ASS
Codec ID : S_TEXT/ASS
Codec ID/Info : Advanced Sub Station Alpha
Duration : 1 h 34 min
Bit rate : 94 b/s
Count of elements : 1216
Compression mode : Lossless
Stream size : 65.2 KiB (0%)
Title : 国配字幕
Language : Chinese
Default : Yes
Forced : No

Text #2
ID : 5
Format : ASS
Codec ID : S_TEXT/ASS
Codec ID/Info : Advanced Sub Station Alpha
Duration : 1 h 33 min
Bit rate : 172 b/s
Count of elements : 2331
Compression mode : Lossless
Stream size : 118 KiB (0%)
Title : 中英文字幕
Language : Chinese
Default : No
Forced : No

下载地址:

链接:https://pan.baidu.com/s/14BgasM1SuqW7kv7LDAyuMw
提取码:

此处内容需要购买后查看,年费会员可免费查看

支付10元查看

分享到:
赞(0)

评论抢沙发

评论前必须登录!