白蛇:缘起·4K60帧【2019大陆H265国粤英5.1声道/14.85GB】

boss真的不是灭霸吗?蛇母为什么那么像安以轩。所以这个算十五禁了吧?猝不及防的床戏啊!开篇的水墨风实在太美了,如果全程死磕水墨风会不会更惊艳呢?不过影片画风也是无敌了 !背景太精细了!仿佛是实景拍摄。结尾的青城山下回忆杀!

导演: 黄家康 / 赵霁
编剧: 大毛
主演: 张喆 / 杨天翔 / 唐小喜 / 刘紫玲 / 张遥函 / 更多...
类型: 爱情 / 动画 / 奇幻
制片国家/地区: 中国大陆 / 美国
语言: 汉语普通话
上映日期: 2019-01-11(中国大陆)
片长: 99分钟
又名: White Snake
IMDb链接: tt9288776

白蛇:缘起的剧情简介 · · · · · ·
幽暗洞中,白蛇(张喆 配音)苦苦修炼却不得其法,小青见此情景,将发髻上的碧玉簪子取下,令白蛇攥在手中。那一刻,五百年前的记忆瞬间苏醒。五百年前,晚唐君主昏聩庸碌,掌握邪术的国师只手遮天,命令天下百姓捕蛇修法。为了拯救族群,白蛇冒险行刺,结果却遭遇挫败,还失去了记忆。当她再度醒来,发现自己被一个专门捕蛇的村落所救下,而那个胆小却善良的青年许宣(杨天翔 配音)则吸引了白蛇的注意。与此同时,国师派出爪牙四处追寻白蛇的下落,而蛇族更误解白蛇叛逃人类,接二连三派出杀手。
五百年后的一段姻缘,早在这乱世之间便已缔结……

文件信息:
Unique ID : 326707252296832716390328575678094861132 (0xF5C9872CA05AA4E42D8B293EC885634C)
Complete name : G:\白蛇起源\发烧版【2019】4K.60帧.佰色.七圆.H265.10bit.DTS-HD.国英5.1双语.中英字幕.mkv
Format : Matroska
Format version : Version 4
File size : 14.8 GiB
Duration : 1 h 39 min
Overall bit rate mode : Variable
Overall bit rate : 21.4 Mb/s
Movie name : 发烧版【2019】4K.60帧.白蛇.起源.H265.10bit.DTS-HD.国英5.1双语.中英字幕
Encoded date : UTC 2020-06-04 07:57:29
Writing application : mkvmerge v47.0.0 ('Black Flag') 64-bit
Writing library : libebml v1.3.10 + libmatroska v1.5.2
Cover : Yes
Attachments : cover.jpg / 微软雅黑.ttf

Video
ID : 1
Format : HEVC
Format/Info : High Efficiency Video Coding
Format profile : Main 10@L5.1@Main
Codec ID : V_MPEGH/ISO/HEVC
Duration : 1 h 39 min
Bit rate : 17.1 Mb/s
Width : 3 840 pixels
Height : 1 620 pixels
Display aspect ratio : 2.40:1
Frame rate mode : Constant
Frame rate : 60.000 FPS
Color space : YUV
Chroma subsampling : 4:2:0
Bit depth : 10 bits
Bits/(Pixel*Frame) : 0.046
Stream size : 11.9 GiB (80%)
Title : 4K时光 4kSG.Cn
Language : Chinese
Default : Yes
Forced : No

Audio #1
ID : 2
Format : DTS XLL
Format/Info : Digital Theater Systems
Commercial name : DTS-HD Master Audio
Codec ID : A_DTS
Duration : 1 h 39 min
Bit rate mode : Variable
Bit rate : 2 185 kb/s
Channel(s) : 6 channels
Channel layout : C L R Ls Rs LFE
Sampling rate : 48.0 kHz
Frame rate : 93.750 FPS (512 SPF)
Bit depth : 24 bits
Compression mode : Lossless
Stream size : 1.51 GiB (10%)
Title : 国语 DTS-HD 5.1
Language : Chinese
Default : Yes
Forced : No

Audio #2
ID : 3
Format : DTS XLL
Format/Info : Digital Theater Systems
Commercial name : DTS-HD Master Audio
Codec ID : A_DTS
Duration : 1 h 39 min
Bit rate mode : Variable
Bit rate : 2 099 kb/s
Channel(s) : 6 channels
Channel layout : C L R Ls Rs LFE
Sampling rate : 48.0 kHz
Frame rate : 93.750 FPS (512 SPF)
Bit depth : 24 bits
Compression mode : Lossless
Stream size : 1.45 GiB (10%)
Title : 英文 DTS-HD 5.1
Language : English
Default : No
Forced : No

Text #1
ID : 4
Format : ASS
Codec ID : S_TEXT/ASS
Codec ID/Info : Advanced Sub Station Alpha
Bit rate : 0 b/s
Count of elements : 0
Compression mode : Lossless
Stream size : 0.00 Byte (0%)
Title : 默认无字
Language : Chinese
Default : Yes
Forced : No

Text #2
ID : 5
Format : ASS
Codec ID : S_TEXT/ASS
Codec ID/Info : Advanced Sub Station Alpha
Duration : 1 h 36 min
Bit rate : 235 b/s
Count of elements : 1033
Compression mode : Lossless
Stream size : 166 KiB (0%)
Title : 中英字幕
Language : Chinese
Default : No
Forced : No

下载地址:

链接:https://pan.baidu.com/s/1cWKZzpNe5B8mJwNbU1IitA
提取码:

此处内容需要购买后查看,年费会员可免费查看

支付10元查看

分享到:
赞(3)

评论3

评论前必须登录!

  1. #1
    是不是4ksg上的哦,4ksg站的电影太贵了,一个电影10块,变向让人充几百一年的才可以低价买,也不低的
    wang32922020-06-22 11:05:28