2K·60帧·大话西游之大圣娶亲【1995·1440P·5.1声道12.7GB】

虽然很不喜欢这种恶搞西游记题材的荒诞喜剧,但确实拍得好。最有感觉的是反复穿越那一段:“为什么要说又呢?”。

大话西游之大圣娶亲 西遊記大結局之仙履奇緣 (1995)

导演: 刘镇伟
编剧: 刘镇伟 / 吴承恩
主演: 周星驰 / 吴孟达 / 罗家英 / 蓝洁瑛 / 莫文蔚 / 更多...
类型: 喜剧 / 爱情 / 奇幻 / 古装
制片国家/地区: 中国香港 / 中国大陆
语言: 粤语 / 汉语普通话
上映日期: 1995-01-21(中国香港) / 2014-10-24(中国大陆)
片长: 87分钟
又名: 西游记101回月光宝盒 / 齐天大圣东游记 / 大话东游之一 / A Chinese Odyssey Part One - Pandora's Box
IMDb链接: tt0112778

大话西游之月光宝盒的剧情简介 · · · · · ·
孙悟空(周星驰)护送唐三藏(罗家英)去西天取经路上,与牛魔王合谋欲杀害唐三藏,并偷走了月光宝盒,此举使观音萌生将其铲除心思,经唐三藏请求,孙悟空被判五百年后重新投胎做人赎其罪孽。
五百年后孙悟空化身强盗头头至尊宝。当遇见预谋吃唐僧肉的妖怪姐妹蜘蛛精春三十娘(蓝洁瑛)和白骨精白晶晶(莫文蔚)时,因为五百年前孙悟空曾与白晶晶有过一段恋情,至尊宝与她一见钟情,但因菩提老祖将二人妖怪身份相告,至尊宝仍带领众强盗开始与二妖展开周旋,过程中,白晶晶为救至尊宝打伤春三十娘,自己也中毒受伤,为了救白晶晶,至尊宝去找春三十娘,遭白晶晶误会,绝望自杀,至尊宝开始用月光宝盒以期使时光倒流。

General
Unique ID : 133319981836636984125135632032655380457 (0x644C7E98E423E7745FC4AF94C56A8FE9)
Complete name : G:\【0267】大化西油之达升曲清\【1995】2K.60帧. 大化西油之达升曲清 .1995.1080P.H265.国语.粤语.四川话.日语.泰语.mkv
Format : Matroska
Format version : Version 4
File size : 12.7 GiB
Duration : 1 h 39 min
Overall bit rate : 18.2 Mb/s
Encoded date : UTC 2020-05-05 09:36:27
Writing application : mkvmerge v46.0.0 ('No Deeper Escape') 64-bit
Writing library : libebml v1.3.10 + libmatroska v1.5.2
Cover : Yes
Attachments : 微软雅黑.ttf / cover.jpg / 微软雅黑.ttf / cover.jpg

Video
ID : 1
Format : HEVC
Format/Info : High Efficiency Video Coding
Format profile : Main 10@L5@Main
Codec ID : V_MPEGH/ISO/HEVC
Duration : 1 h 39 min
Bit rate : 17.2 Mb/s
Width : 2 560 pixels
Height : 1 440 pixels
Display aspect ratio : 16:9
Frame rate mode : Constant
Frame rate : 60.000 FPS
Color space : YUV
Chroma subsampling : 4:2:0
Bit depth : 10 bits
Bits/(Pixel*Frame) : 0.078
Stream size : 12.0 GiB (94%)
Title : 4K时光 4kSG.Cn
Language : Chinese
Default : Yes
Forced : No

Audio #1
ID : 2
Format : AC-3
Format/Info : Audio Coding 3
Commercial name : Dolby Digital
Codec ID : A_AC3
Duration : 1 h 39 min
Bit rate mode : Constant
Bit rate : 448 kb/s
Channel(s) : 6 channels
Channel layout : L R C LFE Ls Rs
Sampling rate : 48.0 kHz
Frame rate : 31.250 FPS (1536 SPF)
Compression mode : Lossy
Stream size : 320 MiB (2%)
Title : 国语
Language : Chinese
Service kind : Complete Main
Default : Yes
Forced : No

Audio #2
ID : 3
Format : AC-3
Format/Info : Audio Coding 3
Commercial name : Dolby Digital
Codec ID : A_AC3
Duration : 1 h 39 min
Bit rate mode : Constant
Bit rate : 448 kb/s
Channel(s) : 6 channels
Channel layout : L R C LFE Ls Rs
Sampling rate : 48.0 kHz
Frame rate : 31.250 FPS (1536 SPF)
Compression mode : Lossy
Stream size : 320 MiB (2%)
Title : 粤语
Language : Chinese
Service kind : Complete Main
Default : No
Forced : No

Audio #3
ID : 4
Format : AAC LC SBR PS
Format/Info : Advanced Audio Codec Low Complexity with Spectral Band Replication and Parametric Stereo
Commercial name : HE-AACv2
Format settings : Explicit
Codec ID : A_AAC-2
Duration : 1 h 39 min
Bit rate : 32.3 kb/s
Channel(s) : 1 channel
Channel(s)_Original : 2 channels
ChannelLayout_Original : C
Sampling rate : 48.0 kHz
Frame rate : 23.438 FPS (2048 SPF)
Compression mode : Lossy
Stream size : 23.0 MiB (0%)
Title : 四川话
Language : Chinese
Default : No
Forced : No

Audio #4
ID : 5
Format : AAC LC SBR PS
Format/Info : Advanced Audio Codec Low Complexity with Spectral Band Replication and Parametric Stereo
Commercial name : HE-AACv2
Format settings : Explicit
Codec ID : A_AAC-2
Duration : 1 h 39 min
Bit rate : 32.3 kb/s
Channel(s) : 1 channel
Channel(s)_Original : 2 channels
ChannelLayout_Original : C
Sampling rate : 48.0 kHz
Frame rate : 23.438 FPS (2048 SPF)
Compression mode : Lossy
Stream size : 23.1 MiB (0%)
Title : 日语
Language : Japanese
Default : No
Forced : No

Audio #5
ID : 6
Format : AAC LC SBR PS
Format/Info : Advanced Audio Codec Low Complexity with Spectral Band Replication and Parametric Stereo
Commercial name : HE-AACv2
Format settings : Explicit
Codec ID : A_AAC-2
Duration : 1 h 39 min
Bit rate : 32.3 kb/s
Channel(s) : 1 channel
Channel(s)_Original : 2 channels
ChannelLayout_Original : C
Sampling rate : 48.0 kHz
Frame rate : 23.438 FPS (2048 SPF)
Compression mode : Lossy
Stream size : 23.0 MiB (0%)
Title : 泰语
Language : Thai
Default : No
Forced : No

Text #1
ID : 7
Format : SSA
Codec ID : S_TEXT/SSA
Codec ID/Info : Sub Station Alpha
Duration : 1 h 35 min
Bit rate : 292 b/s
Count of elements : 1546
Compression mode : Lossless
Stream size : 204 KiB (0%)
Title : 中英字幕
Language : Chinese
Default : Yes
Forced : No

Text #2
ID : 8
Format : ASS
Codec ID : S_TEXT/ASS
Codec ID/Info : Advanced Sub Station Alpha
Duration : 1 h 33 min
Bit rate : 110 b/s
Count of elements : 1541
Compression mode : Lossless
Stream size : 75.7 KiB (0%)
Title : 中文字幕
Language : Chinese
Default : No
Forced : No

Text #3
ID : 9
Format : ASS
Codec ID : S_TEXT/ASS
Codec ID/Info : Advanced Sub Station Alpha
Duration : 1 h 35 min
Bit rate : 111 b/s
Count of elements : 1567
Compression mode : Lossless
Stream size : 77.6 KiB (0%)
Title : 粤语字幕
Language : Chinese
Default : No
Forced : No

2K·60帧·大话西游之大圣娶亲【1995·1440P·5.1声道5种配音12.7GB】百度网盘下载
链接:https://pan.baidu.com/s/11u7VrI7yM2M7qHNdqQ598A
密码:

此处内容需要购买后查看,年费会员可免费查看

支付5元查看


复制这段内容后打开百度网盘手机App,操作更方便哦

分享到:
赞(0)

评论抢沙发

评论前必须登录!