60帧·大侦探福尔摩斯【2009国英双语.特效中字14.91GB】

花生:你偷我衣服!还在我的房子里放火! 腐尔摩斯:是我~们~的房子...花生:你拿我的狗做实验! 腐尔摩斯:是我~们~的狗...花生:你还故意破坏我跟我未婚妻的关系! 腐尔摩斯:我明白了,你太累了,精神紧张,需要休息,那个,我们去度假吧! 某傲娇:哼~人家才不跟你去~
IMDb链接: tt0988045

【影片原名】Sherlock Holmes
【中文译名】大侦探福尔摩斯/福尔摩斯和华生/神探福尔摩斯(港)/福尔摩斯(台)
【出品公司】华纳兄弟影片公司
【出品年代】2009 年
【上映日期】2009年12月25日 美国
【影片级别】USAG-13
【官方网站】http://sherlock-holmes-movie.warnerbros.com/
【IMDB链接】http://www.imdb.com/title/tt0988045
【IMDB评分】7.6/10 (59,736 votes)
【国  家】美国/德国
【类  别】动作/惊悚/剧情/冒险/悬疑/犯罪
【导  演】盖·里奇 Guy Ritchie
【主  演】小罗伯特·唐尼 Robert Downey Jr.....Sherlock Holmes
      裘德·洛 Jude Law....Dr. John Watson
      瑞秋·麦克亚当斯 Rachel McAdams....Irene Adler
      马克·斯特朗 Mark Strong....Lord Blackwood
      埃迪·马森 Eddie Marsan....Inspector Lestrade
      罗伯特·梅耶 Robert Maillet....Dredger
      杰拉丁尼·詹姆斯 Geraldine James....Mrs. Hudson
      凯利·蕾莉 Kelly Reilly....Mary Morstan
      William Houston ....Constable Clark
      汉斯·麦瑟逊 Hans Matheson....Lord Coward
      詹姆斯·福克斯 James Fox....Sir Thomas
      William Hope ....Ambassador Standish
      克里夫·罗素 Clive Russell....Captain Tanner
      David Garrick ....McMurdo
      Andrew Brooke ....Guard Captain

※※※※※※※ 资料信息 ※※※※※※※

【内容简介】

夏洛克·福尔摩斯(小罗伯特·唐尼饰),不仅是19世纪末英国著名的侦探,同时,他还是一位小提琴演奏家,击剑和拳击高手,以及一位花心的情场浪子。对于福尔摩斯的品性,他的助手华生医生(裘德·洛饰)一直颇有微词,但两人亦师亦友的关系却使得华生一直忍让着福尔摩斯的那些坏习惯。不过纵使福尔摩斯一直如此的桀骜不驯,在他内心深处,也一直有一位挚爱--艾琳·艾德勒(瑞秋·麦克亚当斯饰)。

又一起凶案发生,福尔摩斯和华生受人委托开始调查这起案件,最后发现矛头指向备受人们尊敬的布莱克伍德公爵(马克·斯特朗饰),而且奇怪的是这起案件似乎也和艾琳·艾德勒有所关联。福尔摩斯和华生继续追查下去,最后他们发现这个阴谋波及着整个英国的安全!大侦探福尔摩斯开始了他从业以来最复杂也最危险的一次冒险。

文件信息:

General
Unique ID : 161803536041013442560320652564985242038 (0x79BA3A3E8C6363CC8DFF8E25F84361B6)
Complete name : G:\【2009】大帧炭福耳摩丝.国英双语.中文字幕.1080P.60帧\s-z-【2009】妇儿磨死1.mkv
Format : Matroska
Format version : Version 4
File size : 15.3 GiB
Duration : 2 h 8 min
Overall bit rate : 17.0 Mb/s
Encoded date : UTC 2020-05-15 04:00:02
Writing application : mkvmerge v19.0.0 ('Brave Captain') 64-bit
Writing library : libebml v1.3.5 + libmatroska v1.4.8

Video
ID : 2
Format : AVC
Format/Info : Advanced Video Codec
Format profile : High@L4.1
Format settings : CABAC / 4 Ref Frames
Format settings, CABAC : Yes
Format settings, Reference fra : 4 frames
Codec ID : V_MPEG4/ISO/AVC
Duration : 2 h 8 min
Bit rate : 16.0 Mb/s
Width : 1 920 pixels
Height : 1 080 pixels
Display aspect ratio : 16:9
Frame rate mode : Constant
Frame rate : 59.940 (59940/1000) FPS
Color space : YUV
Chroma subsampling : 4:2:0
Bit depth : 8 bits
Scan type : Progressive
Bits/(Pixel*Frame) : 0.129
Stream size : 14.3 GiB (94%)
Writing library : x264 core 133 r2334 a3ac64b
Encoding settings : cabac=1 / ref=4 / deblock=1:-1:-1 / analyse=0x3:0 / me=umh / subme=9 / psy=1 / psy_rd=1.00:0.10 / mixed_ref=1 / me_range=42 / chroma_me=0 / trellis=2 / 8x8dct=1 / cqm=0 / deadzone=21,11 / fast_pskip=0 / chroma_qp_offset=-3 / threads=12 / lookahead_threads=1 / sliced_threads=0 / nr=0 / decimate=0 / interlaced=0 / bluray_compat=0 / constrained_intra=0 / bframes=5 / b_pyramid=2 / b_adapt=2 / b_bias=0 / direct=1 / weightb=1 / open_gop=0 / weightp=2 / keyint=594 / keyint_min=59 / scenecut=40 / intra_refresh=0 / rc=crf / mbtree=0 / crf=15.0 / qcomp=0.60 / qpmin=0 / qpmax=69 / qpstep=4 / ip_ratio=1.40 / pb_ratio=1.30 / aq=0
Language : English
Default : Yes
Forced : No

Audio #1
ID : 3
Format : AAC LC
Format/Info : Advanced Audio Codec Low Complexity
Codec ID : A_AAC-2
Duration : 2 h 8 min
Bit rate : 384 kb/s
Channel(s) : 2 channels
Channel layout : L R
Sampling rate : 48.0 kHz
Frame rate : 46.875 FPS (1024 SPF)
Compression mode : Lossy
Stream size : 353 MiB (2%)
Title : 01.国语 2.0
Language : Chinese
Default : Yes
Forced : No

Audio #2
ID : 4
Format : AC-3
Format/Info : Audio Coding 3
Commercial name : Dolby Digital
Codec ID : A_AC3
Duration : 2 h 8 min
Bit rate mode : Constant
Bit rate : 640 kb/s
Channel(s) : 6 channels
Channel layout : L R C LFE Ls Rs
Sampling rate : 48.0 kHz
Frame rate : 31.250 FPS (1536 SPF)
Compression mode : Lossy
Stream size : 588 MiB (4%)
Title : 01.英语 5.1
Language : English
Service kind : Complete Main
Default : No
Forced : No

Text
ID : 1
Format : UTF-8
Codec ID : S_TEXT/UTF8
Codec ID/Info : UTF-8 Plain Text
Duration : 2 h 0 min
Bit rate : 56 b/s
Count of elements : 1431
Stream size : 49.9 KiB (0%)
Title : 中文字幕
Default : Yes
Forced : No

大侦探福尔摩斯【2009国英双语.特效中字60帧14.91GB1080P】百度网盘下载

链接:https://pan.baidu.com/s/1ApBt4brncXyujjavE3J1Nw 
提取码:z2di 
复制这段内容后打开百度网盘手机App,操作更方便哦
分享到:
赞(0)

评论抢沙发

评论前必须登录!