霍比特人1·意外之旅 2K60帧【国语配音/原声5.1加长版H265.23.37GB】

以前一直对魔戒三部无感~可能是彼得帝的导演剪辑版太墨迹留下阴影。反倒是更儿童文学的霍比特人感觉挺舒服,一直很讨厌蠢死人的弗罗多,比起来花生演的比尔博又萌又机灵。故事还是一如既往的热血和幼齿,特效也越发牛逼。孤山之歌真是世上最难听最洗脑的主题曲。

导演: 彼得·杰克逊
编剧: 弗兰·威尔士 / 菲利帕·鲍恩斯 / 彼得·杰克逊 / 吉尔莫·德尔·托罗 / J·R·R·托尔金
主演: 伊恩·麦克莱恩 / 马丁·弗瑞曼 / 理查德·阿米蒂奇 / 肯·斯托特 / 格拉汉姆·麦克泰维什 / 更多...
类型: 动作 / 奇幻 / 冒险
官方网站: www.thehobbit.com
制片国家/地区: 美国 / 新西兰
语言: 英语 国语
上映日期: 2013-02-22(中国大陆) / 2012-11-28(新西兰首映) / 2012-12-14(美国)
片长: 169分钟 / 182分钟(加长版)
又名: 哈比人:不思议之旅(港) / 哈比人:意外旅程(台) / The Hobbit: Part 1 / 指环王前传:霍比特人(上)
IMDb链接: tt0903624

霍比特人1:意外之旅的剧情简介 · · · · · ·
中土最后一座矮人王国埃尔波尔,巍峨壮丽,庄严雄伟。老国王索尔积聚大量财富,却引来恶龙史茅革的觊觎和荼毒,最终导致这座城池陷落。许多年后,灰袍巫师甘道夫(伊恩·麦凯伦 Ian McKellen 饰)找到弗罗多的舅舅——霍比特人比尔博·巴金斯(马丁·弗里曼 Martin John C. Freeman 饰),邀请他加入由13名矮人组成的远征队伍。原来史茅革已多年不见声息,背负家国仇恨的矮人王子索林(理查德·阿米蒂奇 Richard Armitage 饰)希望借此机会收复故土。经过一番考虑,巴金斯决定加入。令他想不到的是,远征旅途多灾多难,与索林结下深仇大恨的苍白半兽人及其爪牙阴魂不散,更有食人鬼和石人制造的无数艰险。而在旅途中,巴金斯也意外得到了日后影响整个中土的重要宝物……

文件信息:

Unique ID : 107914938806852548146297659316163805774 (0x512FA9450652C9CB8419B5E8F58F824E)
Complete name : G:\火币特任意外之旅\【2012】2K.60帧.获笔特仁1(加长版).上.mkv
Format : Matroska
Format version : Version 4
File size : 12.3 GiB
Duration : 1 h 28 min
Overall bit rate : 19.9 Mb/s
Movie name : 【2012】2K.60帧.霍比特人:意外之旅(加长版).H265.DTS
Encoded date : UTC 2020-04-29 09:22:33
Writing application : mkvmerge v45.0.0 ('Heaven in Pennies') 64-bit
Writing library : libebml v1.3.10 + libmatroska v1.5.2
Cover : Yes
Attachments : cover.jpg / cover.jpg

Video
ID : 1
Format : HEVC
Format/Info : High Efficiency Video Coding
Format profile : Main@L5@Main
Codec ID : V_MPEGH/ISO/HEVC
Duration : 1 h 28 min
Bit rate : 16.8 Mb/s
Width : 2 560 pixels
Height : 1 440 pixels
Display aspect ratio : 16:9
Frame rate mode : Constant
Frame rate : 60.000 FPS
Color space : YUV
Chroma subsampling : 4:2:0
Bit depth : 8 bits
Bits/(Pixel*Frame) : 0.076
Stream size : 10.4 GiB (85%)
Title : 4K时光 4kSG.COM
Language : Chinese
Default : Yes
Forced : No

Audio #1
ID : 2
Format : DTS
Format/Info : Digital Theater Systems
Codec ID : A_DTS
Duration : 1 h 28 min
Bit rate mode : Constant
Bit rate : 1 509 kb/s
Channel(s) : 6 channels
Channel layout : C L R Ls Rs LFE
Sampling rate : 48.0 kHz
Frame rate : 93.750 FPS (512 SPF)
Bit depth : 16 bits
Compression mode : Lossy
Delay relative to video : 3 ms
Stream size : 955 MiB (8%)
Title : 国语
Language : Chinese
Default : Yes
Forced : No

Audio #2
ID : 3
Format : DTS
Format/Info : Digital Theater Systems
Codec ID : A_DTS
Duration : 1 h 28 min
Bit rate mode : Constant
Bit rate : 1 509 kb/s
Channel(s) : 6 channels
Channel layout : C L R Ls Rs LFE
Sampling rate : 48.0 kHz
Frame rate : 93.750 FPS (512 SPF)
Bit depth : 24 bits
Compression mode : Lossy
Delay relative to video : 3 ms
Stream size : 955 MiB (8%)
Title : 英语
Language : English
Default : No
Forced : No

Text #1
ID : 4
Format : ASS
Codec ID : S_TEXT/ASS
Codec ID/Info : Advanced Sub Station Alpha
Duration : 1 h 27 min
Bit rate : 190 b/s
Count of elements : 2156
Compression mode : Lossless
Stream size : 122 KiB (0%)
Title : 中英文字幕
Language : English
Default : Yes
Forced : No

Text #2
ID : 5
Format : ASS
Codec ID : S_TEXT/ASS
Codec ID/Info : Advanced Sub Station Alpha
Duration : 1 h 27 min
Bit rate : 92 b/s
Count of elements : 1087
Compression mode : Lossless
Stream size : 59.3 KiB (0%)
Title : 中文字幕
Language : Chinese
Default : No
Forced : No

下载地址:

链接:https://pan.baidu.com/s/19oP8gy_CeKxLmDVzmNg1ug
提取码:nlty

分享到:
赞(0)

评论抢沙发

评论前必须登录!