60帧·超时空接触 Contact【 1997国英双语特效字幕17.39GB】

思辨性上超过恩师斯皮尔伯格。戏里,科学和宗教信仰摩拳擦掌,戏外,泽米基斯和原作者卡尔·萨根在电影戏剧性与科学原则性上也做着博弈,两人经常吵破天,最基本的观影动机与宇宙绝对真理,哪个对最后的成品与进步结果更有效?答案是:卡尔在电影拍摄过程中逝世,骨髓癌,而泽米基斯把癌症写进了台词。

导演: 罗伯特·泽米吉斯
编剧: 詹姆士·V·哈特 / 迈克尔·戈登伯格 / 卡尔·萨根 / 安·德鲁扬
主演: 朱迪·福斯特 / 马修·麦康纳 / 吉娜·马隆 / 大卫·摩斯 / 威廉·菲克纳 / 更多...
类型: 剧情 / 科幻
制片国家/地区: 美国
语言: 英语 / 西班牙语 / 德语/普通话
上映日期: 1997-07-11
片长: 150 分钟
又名: 接触未来(台) / 接触
IMDb链接: tt0118884

再次拜一下这部经典的科幻电影,独具匠心的编剧和演员的激情演出都无可挑剔,实为经典。

这部电影和其他的科幻片不一样,里面没有外星人,没有飞船,甚至连太空服都没有,几乎所有的事情都发生在地面上,却又离宇宙那么得近。除此之外,还加入了其他科幻片一般都没有的宗教因素,让科学与宗教产生了奇异的碰撞,这也是9年之后再次欣赏的更深体会之一。当我们离科学实际越来越近的时候,宗教就越发显得不安,但科学是无止境的,在科学尚未能发现的领域内,宗教还是占有一席之地的。

另外看重这部电影的,就是两个感叹,一是感叹人类的创造力,无论是大型雷达天线,还是片中的风火轮虫洞产生器(相当于我们的航天飞机升级版),都显示了智慧生物的Power;二是感叹,专什么事,作什么事,成什么事,这需要依赖一种环境,否则科学家们必须要先作养家糊口的工作,然后才能专心研究,倒霉的可能还要被迫改行,为科学发现者打造良好的环境是一个科学良性发展社会的必修课,没有这种思想,何谈“科学发展观”?诸位,虽然我们无法都在科学探索领域作点贡献,但如果能够通过自己的努力,成为科研的资金赞助者也是不错的嘛,运气好了还能到空间站度度假,努力吧~

除了18小时的静电录音,还有一些间接证据能够表明女主角的确经历过奇异的事情,比如说在风火轮在北海道加速到100%的时候,有一个货轮被引力吸得倾斜的镜头,这就说明来自外星生物的蓝图建造的东西创造了巨大的电磁场——人类目前尚无法做到的;另外还有座舱的黑匣子,别忘了所有上天的东西都有这玩意儿,它也跟随主角穿越时空隧道,不会什么都忘记掉的。

最后,鄙视一下嘴里挂着科学知识重要,心里只想着利用科研技术人员,榨干他们油水的政客们;伪学者就更不用说了,他们还不如影片中的那个老总统科学顾问呢,虽然抢了主角的风头,却没有用在坏的地方,更没有给别人下蒙汗药,再说,人家也不是浪得虚名,看到科学仪器也是胸有成竹,有这样的领头羊其实是一种幸福。

另外,关于科学、时空旅行和宗教,还有一部不太出名的电影—— Jesus Video, Das/废墟行动,德国片,讲述的是一群在以色列发掘古迹的科学家发现一具穿过时空隧道到2000年前去拍摄耶稣录像的人的遗体的故事

文件信息:

General
Unique ID : 180405212746472453318424665369440782056 (0x87B8C7B6F0BA5C309FAD94E0154586E8)
Complete name : G:\【0025】超时接触[多音軌5.1]\s-z【0025】超时接触[多音軌5.1]_.mkv
Format : Matroska
Format version : Version 4
File size : 17.9 GiB
Duration : 2 h 29 min
Overall bit rate : 17.1 Mb/s
Encoded date : UTC 2020-05-15 03:13:27
Writing application : mkvmerge v19.0.0 ('Brave Captain') 64-bit
Writing library : libebml v1.3.5 + libmatroska v1.4.8

Video
ID : 1
Format : AVC
Format/Info : Advanced Video Codec
Format profile : High@L4.1
Format settings : CABAC / 5 Ref Frames
Format settings, CABAC : Yes
Format settings, Reference fra : 5 frames
Codec ID : V_MPEG4/ISO/AVC
Duration : 2 h 29 min
Bit rate : 16.0 Mb/s
Width : 1 920 pixels
Height : 800 pixels
Display aspect ratio : 2.40:1
Frame rate mode : Constant
Frame rate : 59.940 (59940/1000) FPS
Color space : YUV
Chroma subsampling : 4:2:0
Bit depth : 8 bits
Scan type : Progressive
Bits/(Pixel*Frame) : 0.174
Stream size : 16.7 GiB (94%)
Writing library : x264 core 130 r2273 b3065e6
Encoding settings : cabac=1 / ref=5 / deblock=1:-1:-1 / analyse=0x3:0 / me=umh / subme=9 / psy=1 / psy_rd=1.00:0.10 / mixed_ref=1 / me_range=24 / chroma_me=0 / trellis=1 / 8x8dct=1 / cqm=0 / deadzone=21,11 / fast_pskip=0 / chroma_qp_offset=-3 / threads=6 / lookahead_threads=1 / sliced_threads=0 / nr=0 / decimate=0 / interlaced=0 / bluray_compat=0 / constrained_intra=0 / bframes=5 / b_pyramid=2 / b_adapt=2 / b_bias=0 / direct=3 / weightb=1 / open_gop=0 / weightp=2 / keyint=250 / keyint_min=25 / scenecut=40 / intra_refresh=0 / rc=2pass / mbtree=0 / bitrate=16000 / ratetol=1.0 / qcomp=0.60 / qpmin=0 / qpmax=69 / qpstep=4 / cplxblur=20.0 / qblur=0.5 / ip_ratio=1.40 / pb_ratio=1.30 / aq=1:0.90
Language : English
Default : Yes
Forced : No

Audio #1
ID : 2
Format : AC-3
Format/Info : Audio Coding 3
Commercial name : Dolby Digital
Codec ID : A_AC3
Duration : 2 h 29 min
Bit rate mode : Constant
Bit rate : 640 kb/s
Channel(s) : 6 channels
Channel layout : L R C LFE Ls Rs
Sampling rate : 48.0 kHz
Frame rate : 31.250 FPS (1536 SPF)
Compression mode : Lossy
Stream size : 685 MiB (4%)
Title : Original
Language : English
Service kind : Complete Main
Default : No
Forced : No

Audio #2
ID : 4
Format : AC-3
Format/Info : Audio Coding 3
Commercial name : Dolby Digital
Codec ID : A_AC3
Duration : 2 h 29 min
Bit rate mode : Constant
Bit rate : 448 kb/s
Channel(s) : 6 channels
Channel layout : L R C LFE Ls Rs
Sampling rate : 48.0 kHz
Frame rate : 31.250 FPS (1536 SPF)
Compression mode : Lossy
Stream size : 479 MiB (3%)
Service kind : Complete Main
Default : Yes
Forced : No

Text
ID : 3
Format : UTF-8
Codec ID : S_TEXT/UTF8
Codec ID/Info : UTF-8 Plain Text
Duration : 2 h 22 min
Bit rate : 46 b/s
Count of elements : 1732
Stream size : 48.5 KiB (0%)
Language : Chinese
Default : Yes
Forced : No

超时空接触 Contact【 1997美国英语原声中文字幕17.39GB】下载

链接:https://pan.baidu.com/s/1q1p-69xKLpnoOccBldekpQ 
提取码:gecr 
复制这段内容后打开百度网盘手机App,操作更方便哦
分享到:
赞(0)

评论抢沙发

评论前必须登录!