疾速备战·60帧 疾速追杀3【2019美国中英字幕1080P 26.67GB】

爽片,一直爽,太爽了到最后都有点累; 开头丢飞刀的片段莫名幽默; 尼奥和墨菲斯的见面; 那句《黑客帝国》的guns lots of guns; 还有日本杀手在洲际酒店变身迷弟真是太可爱了哈哈哈哈哈哈;

疾速备战 John Wick: Chapter 3 - Parabellum (2019)

导演: 查德·斯塔赫斯基
编剧: 德里克·科尔斯塔 / 谢伊·哈顿 / 克里斯·柯林斯 / 马克·艾布拉姆斯
主演: 基努·里维斯 / 哈莉·贝瑞 / 劳伦斯·菲什伯恩 / 安杰丽卡·休斯顿 / 伊恩·麦柯肖恩 / 更多...
类型: 动作 / 惊悚 / 犯罪
制片国家/地区: 美国
语言: 英语 / 俄语 / 日语 / 意大利语 / 阿拉伯语 / 汉语普通话 / 印度尼西亚语 / 拉丁语
上映日期: 2019-05-17(美国)
片长: 131分钟
又名: 杀神John Wick 3(港) / 捍卫任务3:全面开战(台) / 疾速追杀3 / 疾速逃亡 / 极速追杀:第三章 / 约翰·威克3 / 还我狗命3(豆友译名) / John Wick 3 / Alpha Cop / John Wick: Chapter 3 / John Wick 3: Parabellum
IMDb链接: tt6146586

不久之前刚刚经历丧妻之痛的约翰·威克(基努·里维斯 Keanu Reeves 饰),未曾料到磨难与折磨接二连三袭来。他那辆1964年的福特老爷车被一伙俄罗斯小混混盯上,旋即引来对方入室抢劫,心爱的狗狗被当场杀死,约翰也遭到无情毒打,那辆老爷车自然被对方抢走。偷车的混混(阿尔菲·艾伦 Alfie Allen 饰)是黑帮大佬维格•塔拉索夫(迈克尔·恩奎斯特 Michael Nyqvist 饰)的儿子,而维格在听说这件事后显得紧张非常,因为约翰有着令人胆战心惊的身份。他曾是名震江湖的冷血杀手,当年替塔拉索夫杀掉不少难缠的对手,后来却为了妻子金盆洗手。
愤怒至极的约翰拒绝塔拉索夫的调解,他决定单枪匹马展开复仇……

General
Unique ID : 229059569313870041813743231768668918996 (0xAC5344B32CF3B8E8B214D6E5637FD4D4)
Complete name : G:\【0176】寄宿追记\备\寄宿缀傻上1080.mkv
Format : Matroska
Format version : Version 4
File size : 14.5 GiB
Duration : 1 h 14 min
Overall bit rate mode : Variable
Overall bit rate : 27.7 Mb/s
Encoded date : UTC 2020-04-06 15:17:38
Writing application : mkvmerge v9.5.0 ('Quiet Fire') 32bit
Writing library : libebml v1.3.4 + libmatroska v1.4.5

Video
ID : 1
Format : AVC
Format/Info : Advanced Video Codec
Format profile : High@L4.1
Format settings : CABAC / 5 Ref Frames
Format settings, CABAC : Yes
Format settings, Reference fra : 5 frames
Codec ID : V_MPEG4/ISO/AVC
Duration : 1 h 14 min
Bit rate : 23.6 Mb/s
Nominal bit rate : 25.0 Mb/s
Width : 1 920 pixels
Height : 800 pixels
Display aspect ratio : 2.40:1
Frame rate mode : Constant
Frame rate : 60.000 FPS
Color space : YUV
Chroma subsampling : 4:2:0
Bit depth : 8 bits
Scan type : Progressive
Bits/(Pixel*Frame) : 0.256
Stream size : 12.3 GiB (85%)
Writing library : x264 core 146 r2538 121396c
Encoding settings : cabac=1 / ref=5 / deblock=1:-1:-1 / analyse=0x3:0x113 / me=umh / subme=9 / psy=1 / psy_rd=1.00:0.25 / mixed_ref=1 / me_range=32 / chroma_me=1 / trellis=2 / 8x8dct=1 / cqm=0 / deadzone=6,6 / fast_pskip=1 / chroma_qp_offset=-4 / threads=12 / lookahead_threads=2 / sliced_threads=0 / nr=0 / decimate=0 / interlaced=0 / bluray_compat=0 / constrained_intra=0 / bframes=8 / b_pyramid=2 / b_adapt=2 / b_bias=0 / direct=3 / weightb=1 / open_gop=0 / weightp=2 / keyint=600 / keyint_min=60 / scenecut=40 / intra_refresh=0 / rc_lookahead=60 / rc=2pass / mbtree=1 / bitrate=25000 / ratetol=1.0 / qcomp=0.80 / qpmin=0 / qpmax=69 / qpstep=4 / cplxblur=20.0 / qblur=0.5 / vbv_maxrate=50000 / vbv_bufsize=62500 / nal_hrd=none / filler=0 / ip_ratio=1.10 / aq=1:0.50
Language : English
Default : No
Forced : No

Audio
ID : 2
Format : DTS XLL
Format/Info : Digital Theater Systems
Commercial name : DTS-HD Master Audio
Codec ID : A_DTS
Duration : 1 h 14 min
Bit rate mode : Variable
Bit rate : 4 098 kb/s
Channel(s) : 6 channels
Channel layout : C L R Ls Rs LFE
Sampling rate : 48.0 kHz
Frame rate : 93.750 FPS (512 SPF)
Bit depth : 24 bits
Compression mode : Lossless
Stream size : 2.15 GiB (15%)
Language : English
Default : No
Forced : No

Text #1
ID : 3
Format : UTF-8
Codec ID : S_TEXT/UTF8
Codec ID/Info : UTF-8 Plain Text
Duration : 1 h 12 min
Bit rate : 23 b/s
Count of elements : 540
Stream size : 12.6 KiB (0%)
Default : No
Forced : No

Text #2
ID : 4
Format : UTF-8
Codec ID : S_TEXT/UTF8
Codec ID/Info : UTF-8 Plain Text
Duration : 1 h 14 min
Bit rate : 23 b/s
Count of elements : 541
Stream size : 12.7 KiB (0%)
Default : Yes
Forced : No
General
Unique ID : 157860134555701656321903793799401440922 (0x76C2C18A4D80AAD6668D63BDBEEA069A)
Complete name : G:\【0176】寄宿追记\备\寄宿缀傻下1080.mkv
Format : Matroska
Format version : Version 4
File size : 12.1 GiB
Duration : 56 min 17 s
Overall bit rate mode : Variable
Overall bit rate : 30.9 Mb/s
Encoded date : UTC 2020-04-06 15:30:47
Writing application : mkvmerge v44.0.0 ('Domino') 64-bit
Writing library : libebml v1.3.10 + libmatroska v1.5.2

Video
ID : 1
Format : AVC
Format/Info : Advanced Video Codec
Format profile : High@L4.1
Format settings : CABAC / 5 Ref Frames
Format settings, CABAC : Yes
Format settings, Reference fra : 5 frames
Codec ID : V_MPEG4/ISO/AVC
Duration : 56 min 17 s
Bit rate : 26.7 Mb/s
Width : 1 920 pixels
Height : 800 pixels
Display aspect ratio : 2.40:1
Frame rate mode : Constant
Frame rate : 60.000 FPS
Color space : YUV
Chroma subsampling : 4:2:0
Bit depth : 8 bits
Scan type : Progressive
Bits/(Pixel*Frame) : 0.290
Stream size : 10.5 GiB (87%)
Language : English
Default : No
Forced : No

Audio
ID : 2
Format : DTS XLL
Format/Info : Digital Theater Systems
Commercial name : DTS-HD Master Audio
Codec ID : A_DTS
Duration : 56 min 17 s
Bit rate mode : Variable
Bit rate : 4 140 kb/s
Channel(s) : 6 channels
Channel layout : C L R Ls Rs LFE
Sampling rate : 48.0 kHz
Frame rate : 93.750 FPS (512 SPF)
Bit depth : 24 bits
Compression mode : Lossless
Delay relative to video : 1 ms
Stream size : 1.63 GiB (13%)
Language : English
Default : No
Forced : No

Text
ID : 3
Format : UTF-8
Codec ID : S_TEXT/UTF8
Codec ID/Info : UTF-8 Plain Text
Duration : 48 min 20 s
Bit rate : 16 b/s
Count of elements : 267
Stream size : 5.87 KiB (0%)
Default : Yes
Forced : No

疾速备战·60帧 疾速追杀3百度网盘下载:
链接:https://pan.baidu.com/s/1fltc-EPx780vLrgF9sPDeA
提取码:v910

分享到:
赞(1)

评论抢沙发

评论前必须登录!